Віплала / Wiplala (2014)

Нові коментарі

Нова тема   Відповісти
Автор Повідомлення
Anonymous 







2017-02-20 09:42  
Віплала / Wiplala (2014)

Віплала / Wiplala (2014)

Альтернативний постер


повнорозмірні зображення відкриються по кліку (з натиснутим CTRL чи кліком середньою кнопкою мишки - у новій вкладці)


Жанр: сімейний, пригоди, фентезі
Країна: Нідерланди



Кінокомпанія: Bos Bros. Film & TV Productions, Mollywood, Samsa Film
Режисер: Тім Оліхоек / Tim Oliehoek
Актори: Саша Міланус / Sasha Mylanus, Петер Пауль Мюллер / Peter Paul Muller, Геза Вайз / Geza Weisz, Кее Кетелаар / Kee Ketelaar, Як Воутерсе / Jack Wouterse, Петер Ван ден Бегін / Peter Van den Begin, Кес Яансен / Cas Jansen, Ганс Кестінг / Hans Kesting, Рене Гротхоф / René Groothof, Манушка Зегелар-Бревелд / Manoushka Zeegelaar-Breeveld та інші

Сюжет:
Пригоди на тебе можуть чекати де завгодно. Семирічного Йоханнеса вони знаходять у кухонній шафі, адже сам там він натрапляє на маленького чоловічка. Виявляється, що це не гном, не лепрекон, не гобіт, а Віплала. Як і всі інші представники його крихітного роду, він володіє спеціальними чарами – може заблимувати, тобто обертати на камінь або зменшувати все навколо. Але оскільки він недостатньо добре вчився, то він може зачаровувати лише в одному напрямку. Про це Йоханнес та його сестра Нелла Делла не встигають попередити свого тата до того, як той попросив чоловічка витягнути їх з неприємної ситуації. Бо неприємності й пригоди для їхньої родини ще навіть не починалися…

Український трейлер


Тривалість: 01:40:19
Якість: [Hurtom]
Відео:
кодек:
розмір кадру: 720 х 304
бітрейт: 1676 Кбіт/с

Аудіо # 1:
мова: українська
переклад: одноголосий закадровий | Герман Лукич студіо
кодек: 5.1
бітрейт: 384 кбіт/с
Info
Код:
Format                      : AVI
Format/Info                 : Audio Video Interleave
File size                   : 1.45 GiB
Duration                    : 1 h 40 min
Overall bit rate            : 2 069 kb/s

Video
ID                          : 0
Format                      : MPEG-4 Visual
Format profile              : Advanced [email protected]
Format settings, BVOP       : 1
Format settings, QPel       : No
Format settings, GMC        : No warppoints
Format settings, Matrix     : Default (H.263)
Codec ID                    :
Codec ID/Hint               :
Duration                    : 1 h 40 min
Bit rate                    : 1 676 kb/s
Width                       : 720 pixels
Height                      : 304 pixels
Display aspect ratio        : 2.35:1
Frame rate                  : 24.000 FPS
Color space                 : YUV
Chroma subsampling          : 4:2:0
Bit depth                   : 8 bits
Scan type                   : Progressive
Compression mode            : Lossy
Bits/(Pixel*Frame)          : 0.319
Stream size                 : 1.17 GiB (81%)
Writing library             : 67

Audio
ID                          : 1
Format                      : AC-3
Format/Info                 : Audio Coding 3
Mode extension              : CM (complete main)
Format settings, Endianness : Big
Codec ID                    : 2000
Duration                    : 1 h 40 min
Bit rate mode               : Constant
Bit rate                    : 384 kb/s
Channel(s)                  : 6 channels
Channel positions           : Front: L C R, Side: L R, LFE
Sampling rate               : 44.1 kHz
Frame rate                  : 28.711 FPS (1536 spf)
Bit depth                   : 16 bits
Compression mode            : Lossy
Stream size                 : 276 MiB (19%)
Alignment                   : Split accross interleaves
Interleave, duration        : 42  ms (1.00 video frame)
Interleave, preload duratio : 500  ms
Title                       : UKR AVO [Herman Lukych studio]


Джерело: &
Подяка за українську доріжку п.1101

Особиста оцінка: 10 - рекомендую всім дітям та їх батькам


Авторський реліз (завантажувати можна без реєстрації)
 Трекер:    Зареєстрований   

Завантажити / скачати фільм українською



відео для новачків



 Зареєстрований:   2017-02-20 14:01
 Розмір:   1.45 GB 
 Оцінка фільму:   5.6/10 (Голосів: 22)
   
Інші релізи
   Віплала / Wiplala (2014) 720p Ukr/Dut | Sub Eng igor911  2 / 0   2.68 GB   2017-03-09 11:15 
   Віплала / Wiplala (2014) AVC Ukr/Dut | Sub Eng igor911  5 / 0   1.85 GB   2017-02-20 15:21 
   Віплала / Wiplala (2014) 1080p Ukr/Nld 1101  1 / 0   11.43 GB   2015-12-28 17:46 
dcoop 
Новенький


З нами з: 06.12.16
Востаннє: 14.11.17
Повідомлень: 4

2017-02-22 08:14  
Чесно кажучи, дивився і час від часу ловив себе на тому, що бере дрьома... Нуднуватий фільм. Хоча син дивився і, навіть, іноді сміявся...
tetna 
VIP


З нами з: 21.11.14
Востаннє: 19.11.17
Повідомлень: 392

2017-02-27 21:01  
я й сама сміялася.
гарний фільм.
дякую за озвучку та реліз.
"багнючка" ))))

volodymyr_sav 
VIP


З нами з: 07.10.13
Востаннє: 18.11.17
Повідомлень: 1188

2017-06-14 14:20  
Цікава ідея та надто вже по дитячому примітивно втілена. Окрім того й справді події якось мляво розгортаються. Я всеодно дуже вдячний за можливість переглянути рідною. Було б неперевершено глянути багатогососку, адже тут купа персонажів і один голос звичайно з ними несправлявся. Тому хоч і вийшло добре, однак вухо час від часу різало. Гра акторів не дуже, тому фільм не викликав тих емоцій, що я сподівався і вдруге його дивитись нецікаво, однак продовження знімати є з чого. Взяти щось типу Аліси і спільно з країною Віплалів вирішити якусь проблему(когось врятувати) - це доприкладу.
6/10 - глянути все ж варто, нідрики постарались

Ваш часовий пояс: GMT + 2 Години

Нова тема   Відповісти