Велика піна / Soapdish (1991) 1080p Ukr/Eng | Sub Eng

Нові коментарі

Нова тема   Відповісти
Останній раз роздавалося staf777 (2017-09-11)
Автор Повідомлення
staf777 
Відео Гуртом - підтримка та поширення
Відео Гуртом - підтримка та поширення


З нами з: 16.11.16
Востаннє: 11.09.17
Повідомлень: 522

2017-02-19 21:43  
Велика піна / Soapdish (1991) 1080p Ukr/Eng | Sub Eng

Велика піна / Soapdish (1991) 1080p Ukr/Eng | Sub Eng


Жанр: комедія
Країна: США



Кінокомпанія: Paramount Pictures
Режисер: Майкл Хоффман
Актори: Саллі Філд, Кевін Кляйн, Роберт Дауні мол., Елізабет Шу, Вупі Голдберг, Гаррі Маршал, Керрі Фішер (хто не знає - принцеса Лея із Star Wars)

Сюжет:
Неабиякі пристрасті розгораються не лише на знімальному майданчику "мильної опери", а й за її межами. Головна героїня, зірка телебачення, стає жертвою інтриг з боку її молодих суперниць... Знімальний майданчик і особисте життя учасників проекту перетворюється в справжній божевільний будинок - не відрізнити правду від вигадки.


Тривалість: 01:36:26
Якість: 1080p
Відео:
кодек:
розмір кадру: 1920x1080
бітрейт: 14,6 Mб/с

Аудіо # 1:
мова: українська
переклад: багатоголосий закадровий Так Треба Продакшн на замовлення
кодек: 2.0
бітрейт: 192 кб/с

Аудіо # 2:
мова: англійська
переклад: оригінал
кодек: 5.1
бітрейт: 448 кб/с

Субтитри:
мова: англійська (SDH)
тип: програмні (м'які)
формат: *.srt
Info
General
Unique ID : 242096504359640337417710175961894714637 (0xB622173947A2078091F976EDE3457D0D)
Complete name : P:\HD українською » Фільми в HD\Комедія\Soapdish (1991) Ukr,Eng sub.Eng] 1080p [Hurtom].
Format :
Format version : Version 4 / Version 2
File size : 10.3 GiB
Duration : 1 h 36 min
Overall bit rate mode : Variable
Overall bit rate : 15.3 Mb/s
Movie name : Soapdish (1991) Ukr,Eng sub.Eng] 1080p [Hurtom]
Encoded date : UTC 2017-02-19 18:01:11
Writing application : mkvmerge v9.8.0 ('Kuglblids') 64bit
Writing library : libebml v1.3.4 + libmatroska v1.4.5

Video
ID : 1
Format : AVC
Format/Info : Advanced Video Codec
Format profile : [email protected]
Format settings, CABAC : Yes
Format settings, ReFrames : 4 frames
Codec ID : V_MPEG4/ISO/AVC
Duration : 1 h 36 min
Bit rate mode : Variable
Bit rate : 14.6 Mb/s
Maximum bit rate : 15.0 Mb/s
Width : 1 920 pixels
Height : 1 080 pixels
Display aspect ratio : 16:9
Frame rate mode : Constant
Frame rate : 23.976 (24000/1001) FPS
Color space : YUV
Chroma subsampling : 4:2:0
Bit depth : 8 bits
Scan type : Progressive
Bits/(Pixel*Frame) : 0.294
Stream size : 9.85 GiB (96%)
Title : 1080p (Amazon Video)
Writing library : core 148 r2623 d5b2374
Encoding settings : cabac=1 / ref=4 / deblock=1:-1:-1 / analyse=0x3:0x133 / me=umh / subme=9 / psy=1 / psy_rd=1.00:0.15 / mixed_ref=1 / me_range=24 / chroma_me=1 / trellis=2 / 8x8dct=1 / cqm=0 / deadzone=21,11 / fast_pskip=1 / chroma_qp_offset=-3 / threads=34 / lookahead_threads=5 / sliced_threads=0 / nr=150 / decimate=1 / interlaced=0 / bluray_compat=0 / constrained_intra=0 / bframes=8 / b_pyramid=2 / b_adapt=2 / b_bias=0 / direct=3 / weightb=1 / open_gop=0 / weightp=2 / keyint=120 / keyint_min=61 / scenecut=0 / intra_refresh=0 / rc_lookahead=120 / rc=crf / mbtree=1 / crf=18.0 / qcomp=0.60 / qpmin=0 / qpmax=69 / qpstep=4 / vbv_maxrate=15000 / vbv_bufsize=31250 / crf_max=0.0 / nal_hrd=vbr / filler=0 / ip_ratio=1.40 / aq=3:1.00
Language : English
Default : Yes
Forced : No
Color range : Limited
Color primaries : BT.709
Transfer characteristics : BT.709
Matrix coefficients : BT.709

Audio #1
ID : 2
Format : AC-3
Format/Info : Audio Coding 3
Mode extension : CM (complete main)
Format settings, Endianness : Big
Codec ID : A_AC3
Duration : 1 h 36 min
Bit rate mode : Constant
Bit rate : 192 kb/s
Channel(s) : 2 channels
Channel positions : Front: L R
Sampling rate : 48.0 kHz
Frame rate : 31.250 FPS (1536 spf)
Bit depth : 16 bits
Compression mode : Lossy
Stream size : 132 MiB (1%)
Title : 2.0 192Kbps (Інтер)
Language : Ukrainian
Default : Yes
Forced : Yes

Audio #2
ID : 3
Format : AC-3
Format/Info : Audio Coding 3
Mode extension : CM (complete main)
Format settings, Endianness : Big
Codec ID : A_AC3
Duration : 1 h 36 min
Bit rate mode : Constant
Bit rate : 448 kb/s
Channel(s) : 6 channels
Channel positions : Front: L C R, Side: L R, LFE
Sampling rate : 48.0 kHz
Frame rate : 31.250 FPS (1536 spf)
Bit depth : 16 bits
Compression mode : Lossy
Stream size : 309 MiB (3%)
Title : 5.1 448Kbps (DVD R1)
Language : English
Default : No
Forced : No

Text
ID : 4
Format : UTF-8
Codec ID : S_TEXT/UTF8
Codec ID/Info : UTF-8 Plain Text
Duration : 1 h 33 min
Bit rate : 75 b/s
Count of elements : 2138
Stream size : 51.2 KiB (0%)
Title : SDH, iTunes
Language : English
Default : No
Forced : No

Menu
00:00:00.000 : :Night Of A Thousand Stars
00:08:55.284 : :No Turbans For Miss Talbert
00:15:31.138 : :Across The GWB
00:20:55.546 : :Make Maggie A Murderess
00:26:24.874 : :The Mute Speaks
00:34:13.300 : :Find Jeffrey Anderson
00:41:09.882 : :Back From The Dead
00:49:02.938 : :Aunt Celeste
00:57:21.727 : :Climbing The Drainpipe
01:01:27.556 : :Mommy And Daddy
01:07:20.742 : :The Queen Of Misery
01:13:02.458 : :Ingenue From Hell
01:21:40.141 : :Live Broadcast
01:27:19.814 : :Truth Serum
01:32:19.696 : :A Storybook Ending
Скріншоти



Подяки:
MAKAPOHHIK за звукову доріжку

Джерело: &


Срібний реліз (на рейтинг впливає 50% завантаженого)
 Трекер:    Зареєстрований   

Завантажити / скачати фільм українською



відео для новачків



 Зареєстрований:   2017-02-19 21:43
 Розмір:   10.29 GB 
 Оцінка фільму:   10/10 (Голосів: 1)
   
Інші релізи
   Велика піна / Soapdish (1991) NemoInFire  1 / 0   1.39 GB   2012-06-10 18:32 
Ваш часовий пояс: GMT + 2 Години

Нова тема   Відповісти