День незалежності / Independence Day (1996) [Remastered] Remux 1080p 2xUkr/Eng | Sub Eng

Нові коментарі

Нова тема   Відповісти
Автор Повідомлення
famous37 
Відео Гуртом - фільмокрай
Відео Гуртом - фільмокрай


З нами з: 16.11.08
Востаннє: 18.10.17
Повідомлень: 723

2017-02-19 21:41  
День незалежності / Independence Day (1996) [Remastered] Remux 1080p 2xUkr/Eng | Sub Eng

День незалежності / Independence Day (1996) [Remastered] Remux 1080p 2xUkr/Eng | Sub Eng


Жанр: фантастика, бойовик, катастрофа
Країна: США



Кінокомпанія: Centropolis Entertainment, Twentieth Century Fox Film Corporation
Режисер: Роланд Еммеріх
Актори: Вілл Сміт, Білл Пуллман, Джефф Голдблюм, Мері МакДоннел, Джадд Херш, Роберт Лоджа, Ренді Квейд, Маргарет Колін, Вівіка А. Фокс, Джеймс Ребхорн

Сюжет:
Напередодні американського Дня Незалежності на Землю постукали "звідти". І не зовсім з мирними намірами. Це були інопланетяни-загарбники, які на конкурсі краси одержали б лише заохочувальний приз за оригінальність костюму. Над стратегічними центрами планети застигнули гігантські бойові кораблі, удар яких повноцінний. Це найближчі контакти самого третього ступеня за всю історію. Молодий президент пересідає за штурвал винищувача, військовий льотчик за пульт збитої в 40-х в Роузвеллі інопланетною "тарілки", а геніальний математик прораховує варіанти перемоги над позаземним розумом, і знаходить його: заразити головний корабель комп'ютерним вірусом! В критичний момент вторгнення НЛО всі люди стають братами. Ізраїльтяни, араби, європейці, азіати, російські, американці встають пліч-о-пліч і разом боряться з новою загрозою...


Тривалість: 02:24:48
Якість: Remux
Відео:
кодек:
розмір кадру: 1920x1080
бітрейт: 23669 кб/с

Аудіо # 1:
мова: українська
переклад: багатоголосий закадровий
кодек: 5.1
бітрейт: 384 кб/с

Аудіо # 2:
мова: українська
переклад: багатоголосий закадровий
кодек: 2.0
бітрейт: 192 кб/с

Аудіо # 3:
мова: українська
переклад: багатоголосий закадровий
кодек: 2.0
бітрейт: 192 кб/с
Те саме озвучення, що у 1-й доріжці.

Аудіо # 4:
мова: англійська
переклад: оригінал
кодек: -HD 5.1
бітрейт: 4309 кб/с

Аудіо # 5:
мова: англійська
переклад: коментарі # 1
кодек: 2.0
бітрейт: 192 кб/с

Аудіо # 6:
мова: англійська
переклад: коментарі # 2
кодек: 2.0
бітрейт: 192 кб/с

Субтитри # 1-4:
мова: англійська (повні, форсовані, коментарі)
тип: пререндерні
формат: *.pgs
Info
General
Unique ID : 247611907205061343845791341455139157508 (0xBA4851942E3A16D698E57F9D0C103604)
Complete name : D:\Фільми\Фантастика\Independence Day (1996) Remux [2хUkr,Eng] [sub Eng] by famous37 [Hurtom].
Format :
Format version : Version 4 / Version 2
File size : 29.6 GiB
Duration : 2 h 24 min
Overall bit rate mode : Variable
Overall bit rate : 29.2 Mb/s
Movie name : Independence Day (1996) Remux [2хUkr,Eng] [sub Eng] by famous37 [Hurtom]
Encoded date : UTC 2017-02-19 17:40:37
Writing application : mkvmerge v9.8.0 ('Kuglblids') 64bit
Writing library : libebml v1.3.4 + libmatroska v1.4.5

Video
ID : 1
Format : AVC
Format/Info : Advanced Video Codec
Format profile : [email protected]
Format settings, CABAC : Yes
Format settings, ReFrames : 2 frames
Codec ID : V_MPEG4/ISO/AVC
Duration : 2 h 24 min
Bit rate mode : Variable
Bit rate : 23.7 Mb/s
Width : 1 920 pixels
Height : 1 080 pixels
Display aspect ratio : 16:9
Frame rate mode : Constant
Frame rate : 23.976 (24000/1001) FPS
Color space : YUV
Chroma subsampling : 4:2:0
Bit depth : 8 bits
Scan type : Progressive
Bits/(Pixel*Frame) : 0.476
Stream size : 23.9 GiB (81%)
Language : English
Default : Yes
Forced : No

Audio #1
ID : 2
Format : AC-3
Format/Info : Audio Coding 3
Mode extension : CM (complete main)
Format settings, Endianness : Big
Codec ID : A_AC3
Duration : 2 h 24 min
Bit rate mode : Constant
Bit rate : 384 kb/s
Channel(s) : 6 channels
Channel positions : Front: L C R, Side: L R, LFE
Sampling rate : 48.0 kHz
Frame rate : 31.250 FPS (1536 spf)
Bit depth : 16 bits
Compression mode : Lossy
Delay relative to video : 958 ms
Stream size : 398 MiB (1%)
Title : ICTV (5.1)
Language : Ukrainian
Default : Yes
Forced : No

Audio #2
ID : 3
Format : AC-3
Format/Info : Audio Coding 3
Mode extension : CM (complete main)
Format settings, Endianness : Big
Codec ID : A_AC3
Duration : 2 h 24 min
Bit rate mode : Constant
Bit rate : 192 kb/s
Channel(s) : 2 channels
Channel positions : Front: L R
Sampling rate : 48.0 kHz
Frame rate : 31.250 FPS (1536 spf)
Bit depth : 16 bits
Compression mode : Lossy
Stream size : 199 MiB (1%)
Title : ТЕТ (2.0)
Language : Ukrainian
Default : No
Forced : No

Audio #3
ID : 4
Format : AC-3
Format/Info : Audio Coding 3
Mode extension : CM (complete main)
Format settings, Endianness : Big
Codec ID : A_AC3
Duration : 2 h 24 min
Bit rate mode : Constant
Bit rate : 192 kb/s
Channel(s) : 2 channels
Channel positions : Front: L R
Sampling rate : 48.0 kHz
Frame rate : 31.250 FPS (1536 spf)
Bit depth : 16 bits
Compression mode : Lossy
Stream size : 199 MiB (1%)
Title : ICTV (2.0)
Language : Ukrainian
Default : No
Forced : No

Audio #4
ID : 5
Format :
Format/Info : Digital Theater Systems
Format profile : MA / Core
Mode : 16
Format settings, Endianness : Big
Codec ID : A_DTS
Duration : 2 h 24 min
Bit rate mode : Variable / Constant
Bit rate : 4 309 kb/s / 1 509 kb/s
Channel(s) : 6 channels
Channel positions : Front: L C R, Side: L R, LFE
Sampling rate : 48.0 kHz
Frame rate : 93.750 FPS (512 spf)
Bit depth : 24 bits
Compression mode : Lossless / Lossy
Stream size : 4.36 GiB (15%)
Language : English
Default : No
Forced : No

Audio #5
ID : 6
Format : AC-3
Format/Info : Audio Coding 3
Mode extension : CM (complete main)
Format settings, Endianness : Big
Codec ID : A_AC3
Duration : 2 h 24 min
Bit rate mode : Constant
Bit rate : 192 kb/s
Channel(s) : 1 channel
Channel positions : Front: C
Sampling rate : 48.0 kHz
Frame rate : 31.250 FPS (1536 spf)
Bit depth : 16 bits
Compression mode : Lossy
Stream size : 199 MiB (1%)
Title : Commentary #1
Language : English
Default : No
Forced : No

Audio #6
ID : 7
Format : AC-3
Format/Info : Audio Coding 3
Format profile : Dolby Digital
Mode extension : CM (complete main)
Format settings, Endianness : Big
Codec ID : A_AC3
Duration : 2 h 24 min
Bit rate mode : Constant
Bit rate : 224 kb/s
Channel(s) : 2 channels
Channel positions : Front: L R
Sampling rate : 48.0 kHz
Frame rate : 31.250 FPS (1536 spf)
Bit depth : 16 bits
Compression mode : Lossy
Stream size : 232 MiB (1%)
Title : Commentary #2
Language : English
Default : No
Forced : No

Text #1
ID : 8
Format : PGS
Muxing mode : zlib
Codec ID : S_HDMV/PGS
Codec ID/Info : Picture based subtitle format used on BDs/HD-DVDs
Duration : 2 h 14 min
Bit rate : 15.0 kb/s
Count of elements : 3279
Stream size : 14.5 MiB (0%)
Language : English
Default : Yes
Forced : No

Text #2
ID : 9
Format : PGS
Muxing mode : zlib
Codec ID : S_HDMV/PGS
Codec ID/Info : Picture based subtitle format used on BDs/HD-DVDs
Duration : 2 h 16 min
Bit rate : 12.9 kb/s
Count of elements : 1926
Stream size : 12.6 MiB (0%)
Language : English
Default : No
Forced : No

Text #3
ID : 10
Format : PGS
Muxing mode : zlib
Codec ID : S_HDMV/PGS
Codec ID/Info : Picture based subtitle format used on BDs/HD-DVDs
Duration : 2 h 22 min
Bit rate : 19.7 kb/s
Count of elements : 2970
Stream size : 20.1 MiB (0%)
Language : English
Default : No
Forced : No

Text #4
ID : 11
Format : PGS
Muxing mode : zlib
Codec ID : S_HDMV/PGS
Codec ID/Info : Picture based subtitle format used on BDs/HD-DVDs
Duration : 2 h 21 min
Bit rate : 10.2 kb/s
Count of elements : 512
Stream size : 10.4 MiB (0%)
Language : English
Default : No
Forced : No
Скріншоти
Remux з нового Remastered видання. Порівняння
Подяка: пану Givi за зведення звуку 5.1, пану восвобода, drakon87 за надану сиру доріжку, пану xslim за надану сиру доріжку, пану realNitro за українізований постер

Джерело: &
Особиста оцінка: 10 - без зайвих вагань рекомендую всім!

Завантажуйте і не забувайте про коментарі та подяки, адже на цьому будується наше спілкування
і не дає довести процес обміну фільмами до бездушного автоматизму!!!

Будь ласка, залишайтеся на роздачі!
Діліться з ближніми!




Золотий реліз (завантажене не впливає на рейтинг)
 Трекер:    Зареєстрований   

Завантажити / скачати фільм українською



відео для новачків



 Зареєстрований:   2017-02-19 21:41
 Розмір:   29.56 GB 
 Оцінка фільму:   9/10 (Голосів: 9)
   
Ваш часовий пояс: GMT + 2 Години

Нова тема   Відповісти