Життя цього хлопця. Правдива історія / This Boy's Life (1993) 720p Ukr/Eng | Sub Eng

Нові коментарі

Нова тема   Відповісти
Останній раз роздавалося staf777 (2017-11-06)
Автор Повідомлення
staf777 
Відео Гуртом - підтримка та поширення
Відео Гуртом - підтримка та поширення


З нами з: 16.11.16
Востаннє: 06.11.17
Повідомлень: 522

2017-02-19 14:48  
Життя цього хлопця. Правдива історія / This Boy's Life (1993) 720p Ukr/Eng | Sub Eng

Життя цього хлопця. Правдива історія / This Boy's Life (1993) 720p Ukr/Eng | Sub Eng


Жанр: біографічний, драма
Країна: США



Кінокомпанія: Knickerbocker Films
Режисер: Майкл Кейтон-Джонс
Актори: Роберт Де Ніро, Леонардо ДіКапріо, Еллен Баркін, Джона Блекмен, Еліза Душку, Кріс Купер, Карла Гуджіно, Зекарі Енслі, Трейсі Елліс, Кеті Кінні, Тобі Магвайр

Сюжет:
Чоловік Керолайн розлучається з нею і одружується на багатій жінці. Забравши старшого сина, він їде і більше не цікавиться проблемами колишньої родини. Безробітна Керолайн бере молодшого сина Тобі і відправляється в безцільну поїздку по Америці. Вони зупиняються в декількох містах, де Керолайн намагається влаштувати їх життя.
І одного разу доля зводить її з Двайтом, приємною і ввічливою людиною. Керолайн виходить за нього заміж, сподіваючись, що він принесе стабільність у їх життя і допоможе підняти Тобі. Але всупереч її очікуванням, в будинок входить суворий і запальний чоловік. При новому «батькові сімейства», деспоті і тирані, їхнє життя перетворюється на суцільне жахіття.


Тривалість: 01:54:42
Якість: 720p
Відео:
кодек:
розмір кадру: 1280x530
бітрейт: 4900 кб/с

Аудіо # 1:
мова: українська
переклад: багатоголосий закадровий Так Треба Продакшн
кодек: 2.0
бітрейт: 192 кб/с

Аудіо # 2:
мова: англійська
переклад: оригінал
кодек: 5.1
бітрейт: 1509 кб/с

Субтитри:
мова: англійська
тип: програмні (м'які)
формат: *.srt
Info
General
Unique ID : 185277741783576064273578996671775220939 (0x8B6331F19C74239E926EB5D604EFA4CB)
Complete name : P:\HD українською » Фільми в HD\Драма\This Boy's Life (1993) [Ukr,Eng sub.Eng] 720p [Hurtom].
Format :
Format version : Version 4 / Version 2
File size : 5.29 GiB
Duration : 1 h 54 min
Overall bit rate : 6 603 kb/s
Movie name : This Boy's Life (1993) [Ukr,Eng sub.Eng] 720p [Hurtom]
Encoded date : UTC 2017-02-19 12:07:17
Writing application : mkvmerge v9.8.0 ('Kuglblids') 64bit
Writing library : libebml v1.3.4 + libmatroska v1.4.5

Video
ID : 1
Format : AVC
Format/Info : Advanced Video Codec
Format profile : [email protected]
Format settings, CABAC : Yes
Format settings, ReFrames : 12 frames
Codec ID : V_MPEG4/ISO/AVC
Duration : 1 h 54 min
Bit rate : 4 900 kb/s
Width : 1 280 pixels
Height : 530 pixels
Display aspect ratio : 2.40:1
Frame rate mode : Constant
Frame rate : 23.976 (24000/1001) FPS
Color space : YUV
Chroma subsampling : 4:2:0
Bit depth : 8 bits
Scan type : Progressive
Bits/(Pixel*Frame) : 0.301
Stream size : 3.93 GiB (74%)
Writing library : core 125 r2200 999b753
Encoding settings : cabac=1 / ref=12 / deblock=1:-3:-3 / analyse=0x3:0x113 / me=tesa / subme=11 / psy=1 / psy_rd=1.10:0.00 / mixed_ref=1 / me_range=16 / chroma_me=1 / trellis=2 / 8x8dct=1 / cqm=0 / deadzone=21,11 / fast_pskip=0 / chroma_qp_offset=-2 / threads=12 / lookahead_threads=2 / sliced_threads=0 / nr=0 / decimate=0 / interlaced=0 / bluray_compat=0 / constrained_intra=0 / bframes=8 / b_pyramid=2 / b_adapt=2 / b_bias=0 / direct=3 / weightb=1 / open_gop=0 / weightp=2 / keyint=250 / keyint_min=23 / scenecut=40 / intra_refresh=0 / rc=2pass / mbtree=0 / bitrate=4900 / ratetol=1.0 / qcomp=0.60 / qpmin=0 / qpmax=69 / qpstep=4 / cplxblur=20.0 / qblur=0.5 / ip_ratio=1.40 / pb_ratio=1.30 / aq=1:0.90
Language : English
Default : Yes
Forced : No

Audio #1
ID : 2
Format : AC-3
Format/Info : Audio Coding 3
Mode extension : CM (complete main)
Format settings, Endianness : Big
Codec ID : A_AC3
Duration : 1 h 54 min
Bit rate mode : Constant
Bit rate : 192 kb/s
Channel(s) : 2 channels
Channel positions : Front: L R
Sampling rate : 48.0 kHz
Frame rate : 31.250 FPS (1536 spf)
Bit depth : 16 bits
Compression mode : Lossy
Stream size : 158 MiB (3%)
Title : Так Треба Продакшн
Language : Ukrainian
Default : Yes
Forced : Yes

Audio #2
ID : 3
Format :
Format/Info : Digital Theater Systems
Mode : 16
Format settings, Endianness : Big
Codec ID : A_DTS
Duration : 1 h 54 min
Bit rate mode : Constant
Bit rate : 1 509 kb/s
Channel(s) : 2 channels
Channel positions : Front: L R
Sampling rate : 48.0 kHz
Frame rate : 93.750 FPS (512 spf)
Bit depth : 24 bits
Compression mode : Lossy
Stream size : 1.21 GiB (23%)
Language : English
Default : No
Forced : No

Text
ID : 4
Format : UTF-8
Codec ID : S_TEXT/UTF8
Codec ID/Info : UTF-8 Plain Text
Duration : 1 h 48 min
Bit rate : 57 b/s
Count of elements : 1121
Stream size : 45.8 KiB (0%)
Language : English
Default : No
Forced : No

Menu
00:00:00.000 : en:00:00:00.000
00:08:18.039 : en:00:08:18.039
00:16:27.987 : en:00:16:27.987
00:26:42.476 : en:00:26:42.476
00:35:16.865 : en:00:35:16.865
00:43:51.629 : en:00:43:51.629
00:52:21.930 : en:00:52:21.930
01:04:47.926 : en:01:04:47.926
01:14:52.780 : en:01:14:52.780
01:24:40.325 : en:01:24:40.325
01:37:05.236 : en:01:37:05.236
01:48:41.181 : en:01:48:41.181
Скріншоти




Подяки:
MAKAPOHHIK за запис з ТБ;
imonko за синхронізацію

Джерело: &


Срібний реліз (на рейтинг впливає 50% завантаженого)
 Трекер:    Зареєстрований   

Завантажити / скачати фільм українською



відео для новачків



 Зареєстрований:   2017-02-19 14:48
 Розмір:   5.29 GB 
 Оцінка фільму:   10/10 (Голосів: 2)
   
Ваш часовий пояс: GMT + 2 Години

Нова тема   Відповісти