Новачок / The Rookie (1990) 720p Ukr/Eng | Sub Eng

Нові коментарі

Нова тема   Відповісти
Автор Повідомлення
staf777 
Відео Гуртом - підтримка та поширення
Відео Гуртом - підтримка та поширення


З нами з: 16.11.16
Востаннє: 12.11.19
Повідомлень: 3017

2017-02-19 09:29  
Новачок / The Rookie (1990) 720p Ukr/Eng | Sub Eng

Новачок / The Rookie (1990) 720p Ukr/Eng | Sub Eng
Оригінальна обкладинка


Жанр: бойовик, трилер, драма, кримінал
Країна: США



Кінокомпанія: Kazanjian/Siebert Productions, Malpaso Productions, Warner Bros. Pictures
Режисер: Клінт Іствуд
Актори: Клінт Іствуд, Чарлі Шин, Рауль Хуліа, Соня Брага, Том Скерріт, Лара Флінн Бойл, Пепе Серна, Мазко Родрігес, Піт Рендалл, Донна Мітчелл

Сюжет:
Детективу з Лос-Анджелеса, Ніку Пуловські, який займається розкриттям викрадень дорогих авто, після загибелі його напарника дають в помічники новачка - Девіда Аккермана. Девід, цілком успішний хлопець з багатої сім'ї, що закінчив університет. В дитинстві він став мимовільним винуватцем загибелі брата і через це він відчуває страх і докори сумління. Халепа, в яку вони з Ніком потрапляють, переслідуючи ватажка банди викрадачів, Строма, змусить його перебороти свій страх...


Тривалість: 02:00:45
Якість: 720p
Відео:
кодек:
розмір кадру: 1278x536
бітрейт: 6186 кб/с

Аудіо # 1:
мова: українська
переклад: багатоголосий закадровий
кодек: 5.1
бітрейт: 384 кб/с

Аудіо # 2:
мова: англійська
переклад: оригінал
кодек: 5.1
бітрейт: 640 кб/с

Субтитри #1-2:
мова: англійська
тип: програмні (м'які)
формат: *.srt
Info
General
Unique ID : 219853706916270650704753639341846999660 (0xA56648A4110E92EEBD13A5050ECCB26C)
Complete name : P:\HD українською » Фільми в HD\Трилер\The Rookie (1990) [Ukr,Eng sub.Eng] 720p [Hurtom].
Format :
Format version : Version 4 / Version 2
File size : 6.08 GiB
Duration : 2 h 0 min
Overall bit rate : 7 213 kb/s
Movie name : The Rookie (1990) [Ukr,Eng sub.Eng] 720p [Hurtom]
Encoded date : UTC 2017-02-19 06:51:18
Writing application : v9.8.0 ('Kuglblids') 64bit
Writing library : libebml v1.3.4 + v1.4.5
Cover : Yes
Attachments : cover.jpg

Video
ID : 1
Format : AVC
Format/Info : Advanced Video Codec
Format profile : [email protected]
Format settings, CABAC : Yes
Format settings, ReFrames : 12 frames
Codec ID : V_MPEG4/ISO/AVC
Duration : 2 h 0 min
Bit rate : 6 187 kb/s
Width : 1 278 pixels
Height : 536 pixels
Display aspect ratio : 2.40:1
Frame rate mode : Constant
Frame rate : 23.976 (24000/1001) FPS
Color space : YUV
Chroma subsampling : 4:2:0
Bit depth : 8 bits
Scan type : Progressive
Bits/(Pixel*Frame) : 0.377
Stream size : 5.22 GiB (86%)
Writing library : core 146 r0+2586 e393126 t_mod_Custom [[email protected] X86_64]
Encoding settings : cabac=1 / ref=12 / deblock=1:-3:-3 / analyse=0x3:0x133 / me=esa / subme=9 / psy=1 / fade_compensate=0.00 / psy_rd=1.05:0.05 / mixed_ref=1 / me_range=24 / chroma_me=1 / trellis=2 / 8x8dct=1 / cqm=0 / deadzone=21,11 / fast_pskip=0 / chroma_qp_offset=-3 / threads=6 / lookahead_threads=1 / sliced_threads=0 / nr=0 / decimate=1 / interlaced=0 / bluray_compat=0 / constrained_intra=0 / fgo=0 / bframes=11 / b_pyramid=2 / b_adapt=2 / b_bias=0 / direct=3 / weightb=1 / open_gop=0 / weightp=2 / keyint=250 / keyint_min=23 / scenecut=40 / intra_refresh=0 / rc_lookahead=60 / rc=crf / mbtree=0 / crf=17.0000 / qcomp=0.60 / qpmin=0:0:0 / qpmax=69:69:69 / qpstep=4 / vbv_maxrate=62500 / vbv_bufsize=78125 / crf_max=0.0 / nal_hrd=none / filler=0 / ip_ratio=1.30 / pb_ratio=1.20 / aq=3:0.80 / aq-sensitivity=10.00 / aq-factor=1.00:1.00:1.00 / aq2=0 / aq3=0
Language : English
Default : Yes
Forced : No
Color range : Limited
Color primaries : BT.709
Transfer characteristics : BT.709
Matrix coefficients : BT.709

Audio #1
ID : 2
Format : AC-3
Format/Info : Audio Coding 3
Mode extension : CM (complete main)
Format settings, Endianness : Big
Codec ID : A_AC3
Duration : 2 h 0 min
Bit rate mode : Constant
Bit rate : 384 kb/s
Channel(s) : 6 channels
Channel positions : Front: L C R, Side: L R, LFE
Sampling rate : 48.0 kHz
Frame rate : 31.250 FPS (1536 spf)
Bit depth : 16 bits
Compression mode : Lossy
Stream size : 332 MiB (5%)
Title : UA-MVO, НТН
Language : Ukrainian
Default : Yes
Forced : Yes

Audio #2
ID : 3
Format : AC-3
Format/Info : Audio Coding 3
Mode extension : CM (complete main)
Format settings, Endianness : Big
Codec ID : A_AC3
Duration : 2 h 0 min
Bit rate mode : Constant
Bit rate : 640 kb/s
Channel(s) : 6 channels
Channel positions : Front: L C R, Side: L R, LFE
Sampling rate : 48.0 kHz
Frame rate : 31.250 FPS (1536 spf)
Bit depth : 16 bits
Compression mode : Lossy
Stream size : 553 MiB (9%)
Language : English
Default : No
Forced : No

Text #1
ID : 4
Format : UTF-8
Codec ID : S_TEXT/UTF8
Codec ID/Info : UTF-8 Plain Text
Duration : 1 h 56 min
Bit rate : 36 b/s
Count of elements : 855
Stream size : 31.5 KiB (0%)
Language : English
Default : No
Forced : No

Text #2
ID : 5
Format : UTF-8
Codec ID : S_TEXT/UTF8
Codec ID/Info : UTF-8 Plain Text
Duration : 2 h 0 min
Bit rate : 37 b/s
Count of elements : 934
Stream size : 33.1 KiB (0%)
Title : SDH
Language : English
Default : No
Forced : No

Menu
00:00:00.000 : en:00:00:00.000
00:02:28.354 : en:00:02:28.354
00:07:25.735 : en:00:07:25.735
00:11:15.130 : en:00:11:15.130
00:15:22.254 : en:00:15:22.254
00:17:39.016 : en:00:17:39.016
00:21:30.038 : en:00:21:30.038
00:24:12.325 : en:00:24:12.325
00:25:40.538 : en:00:25:40.538
00:29:44.949 : en:00:29:44.949
00:34:10.088 : en:00:34:10.088
00:38:12.539 : en:00:38:12.539
00:43:34.152 : en:00:43:34.152
00:47:15.873 : en:00:47:15.873
00:50:10.090 : en:00:50:10.090
00:54:22.425 : en:00:54:22.425
00:56:57.996 : en:00:56:57.996
00:59:31.150 : en:00:59:31.150
01:01:09.289 : en:01:01:09.289
01:06:31.445 : en:01:06:31.445
01:08:36.362 : en:01:08:36.362
01:12:25.297 : en:01:12:25.297
01:15:03.916 : en:01:15:03.916
01:20:47.841 : en:01:20:47.841
01:25:18.238 : en:01:25:18.238
01:27:58.273 : en:01:27:58.273
01:30:31.634 : en:01:30:31.634
01:33:29.770 : en:01:33:29.770
01:37:09.573 : en:01:37:09.573
01:43:00.881 : en:01:43:00.881
01:46:49.528 : en:01:46:49.528
01:49:07.707 : en:01:49:07.707
01:50:08.975 : en:01:50:08.975
01:54:04.420 : en:01:54:04.420
01:56:58.094 : en:01:56:58.094
Скріншоти



подяка за наданий звук пані - olgaya
подяка за синхронізацію пану Romario_O
подяка за укр. постер пану dr_stas


Джерело:
Особиста оцінка: 0 - не дивився
ЗАЛИШАЙТЕСЬ ЯКОМОГА ДОВШЕ НА РОЗДАЧІ!

СКАЧАВ САМ - ДАЙ СКАЧАТИ ІНШИМ



Срібний реліз (на рейтинг впливає 50% завантаженого)
 Трекер:    Зареєстрований   

Завантажити / скачати фільм українською



відео для новачків



 Зареєстрований:   2017-02-19 09:29
 Розмір:   6.08 GB 
 Оцінка фільму:   8.7/10 (Голосів: 7)
   
Інші релізи
   Новачок / The Rookie (1990) Remux 1080p Ukr/Eng | Sub Eng MakRA  2 / 0   19.4 GB   2019-09-15 00:09 
   Новачок / The Rookie (1990) AVC Ukr/Eng | Sub Eng staf777  4 / 0   2.24 GB   2018-12-08 11:28 
   Новачок / The Rookie (1990) 1080p Ukr/Eng | Sub Eng drop_plz  1 / 0   11.01 GB   2018-09-03 19:05 
   Новачок / The Rookie (1990) Ukr/Eng | Sub Eng Romario_O  2 / 0   2.18 GB   2010-10-16 20:13 
hetzendorf 
Забанено
Забанено


З нами з: 23.07.15
Востаннє: 02.11.19
Повідомлень: 2572

2017-02-26 00:07  
Дивно, чому на imdb сабж настільки недооцінений? Чудовий фільм же!
9/10

Ваш часовий пояс: GMT + 2 Години

Нова тема   Відповісти