Ignea - The Sign of Faith (2017) [FLAC] | Progressive Metal/Oriental Metal

Нові коментарі

Нова тема   Відповісти
Автор Повідомлення
kolpavel 
VIP


З нами з: 04.05.14
Востаннє: 23.05.17
Повідомлень: 1132

2017-02-19 00:31  
Ignea - The Sign of Faith (2017) [FLAC] | Progressive Metal/Oriental Metal

Ignea - The Sign of Faith (2017) [FLAC] | Progressive Metal/Oriental Metal


Стиль: Progressive Metal Oriental Metal
Країна, місто: Україна, Київ
Сайти: Офіційний сайт
Видавець: гурт
Виконавці:
Helle Bogdanova — текст, вокал
Evgeny Zhytnyuk — клавішні, вокал
Xander Kamyshin — бас
Дмитро Вiннiченко — гітари
Iван Холмогоров — ударнi
Пісні:
    01. Şeytanu Akbar - 04:40
    02. Alexandria - 03:58
    03. Petrichor - 03:32
    04. Theatre of Denial - 04:18
    05. Jahi - 07:37
    06. Halves Rupture - 04:05
    07. Last Chosen by You - 02:57
    08. Alga - 06:17
    09. How I Hate the Night - 03:22
    10. Leviathan (Ultra Sheriff Cover) - 04:54

Тривалість: 00:45:39
Мова: англiйська
Аудіо-кодек: FLAC
Бітрейт: 922-1088 кб/с
Джерело: трекер
Додаткова інформація:
EAC
Exact Audio Copy V1.3 from 2. September 2016

EAC extraction logfile from 28. February 2017, 11:50

Ignea / The Sign of Faith

Used drive : HP DVD Writer 1260x Adapter: 1 ID: 0

Read mode : Secure
Utilize accurate stream : Yes
Defeat audio cache : Yes
Make use of C2 pointers : No

Read offset correction : 6
Overread into Lead-In and Lead-Out : No
Fill up missing offset samples with silence : Yes
Delete leading and trailing silent blocks : No
Null samples used in CRC calculations : Yes
Used interface : Native Win32 interface for Win NT & 2000
Gap handling : Appended to previous track

Used output format : User Defined Encoder
Selected bitrate : 896 kBit/s
Quality : High
Add ID3 tag : No
Command line compressor : C:\Program Files (x86)\Exact Audio Copy\Flac\flac.exe
Additional command line options : -V -8 -T "Date=%year%" -T "Genre=%genre%" %source%

TOC of the extracted CD

Track | Start | Length | Start sector | End sector
---------------------------------------------------------
1 | 0:00.00 | 4:40.25 | 0 | 21024
2 | 4:40.25 | 3:57.40 | 21025 | 38839
3 | 8:37.65 | 3:32.34 | 38840 | 54773
4 | 12:10.24 | 4:18.37 | 54774 | 74160
5 | 16:28.61 | 7:36.48 | 74161 | 108408
6 | 24:05.34 | 4:04.39 | 108409 | 126747
7 | 28:09.73 | 2:57.00 | 126748 | 140022
8 | 31:06.73 | 6:17.11 | 140023 | 168308
9 | 37:24.09 | 3:21.73 | 168309 | 183456
10 | 40:46.07 | 4:53.46 | 183457 | 205477

Track 1

Filename C:\Users\nickname\OneDrive\Music\Ignea\TsoF_NEW\01. Şeytanu Akbar.wav

Pre-gap length 0:00:02.00

Peak level 98.8 %
Extraction speed 5.3 X
Track quality 100.0 %
Test CRC D24E816B
Copy CRC D24E816B
Track not present in AccurateRip database
Copy OK

Track 2

Filename C:\Users\nickname\OneDrive\Music\Ignea\TsoF_NEW\02. Alexandria.wav

Peak level 98.8 %
Extraction speed 5.8 X
Track quality 100.0 %
Test CRC 94160916
Copy CRC 94160916
Track not present in AccurateRip database
Copy OK

Track 3

Filename C:\Users\nickname\OneDrive\Music\Ignea\TsoF_NEW\03. Petrichor.wav

Peak level 98.8 %
Extraction speed 5.5 X
Track quality 99.9 %
Test CRC D9BF18B4
Copy CRC D9BF18B4
Track not present in AccurateRip database
Copy OK

Track 4

Filename C:\Users\nickname\OneDrive\Music\Ignea\TsoF_NEW\04. Theatre of Denial.wav

Peak level 98.8 %
Extraction speed 6.9 X
Track quality 100.0 %
Test CRC FE6A5CF5
Copy CRC FE6A5CF5
Track not present in AccurateRip database
Copy OK

Track 5

Filename C:\Users\nickname\OneDrive\Music\Ignea\TsoF_NEW\05. Jahi.wav

Peak level 98.8 %
Extraction speed 8.0 X
Track quality 100.0 %
Test CRC FACF1CC4
Copy CRC FACF1CC4
Track not present in AccurateRip database
Copy OK

Track 6

Filename C:\Users\nickname\OneDrive\Music\Ignea\TsoF_NEW\06. Halves Rapture.wav

Peak level 98.8 %
Extraction speed 8.1 X
Track quality 100.0 %
Test CRC 1D97F313
Copy CRC 1D97F313
Track not present in AccurateRip database
Copy OK

Track 7

Filename C:\Users\nickname\OneDrive\Music\Ignea\TsoF_NEW\07. Last Chosen By You.wav

Peak level 98.8 %
Extraction speed 8.0 X
Track quality 100.0 %
Test CRC 29AE62C1
Copy CRC 29AE62C1
Track not present in AccurateRip database
Copy OK

Track 8

Filename C:\Users\nickname\OneDrive\Music\Ignea\TsoF_NEW\08. Alga.wav

Peak level 98.8 %
Extraction speed 8.5 X
Track quality 99.9 %
Test CRC 20DB9E00
Copy CRC 20DB9E00
Track not present in AccurateRip database
Copy OK

Track 9

Filename C:\Users\nickname\OneDrive\Music\Ignea\TsoF_NEW\09. How I Hate the Night.wav

Peak level 98.8 %
Extraction speed 8.9 X
Track quality 100.0 %
Test CRC C0B0F7D5
Copy CRC C0B0F7D5
Track not present in AccurateRip database
Copy OK

Track 10

Filename C:\Users\nickname\OneDrive\Music\Ignea\TsoF_NEW\10. Leviathan (Ultra Sheriff cover).wav

Peak level 98.8 %
Extraction speed 9.6 X
Track quality 100.0 %
Test CRC CCB31AFA
Copy CRC CCB31AFA
Track not present in AccurateRip database
Copy OK

None of the tracks are present in the AccurateRip database

No errors occurred

End of status report

---- CUETools DB Plugin V2.1.6

[CTDB TOCID: ehHupiqYlUW3m9eCoMJL7G1WuAI-] found
Submit result: ehHupiqYlUW3m9eCoMJL7G1WuAI- has been confirmed
Track | CTDB Status
1 | (1/1) Accurately ripped
2 | (1/1) Accurately ripped
3 | (1/1) Accurately ripped
4 | (1/1) Accurately ripped
5 | (1/1) Accurately ripped
6 | (1/1) Accurately ripped
7 | (1/1) Accurately ripped
8 | (1/1) Accurately ripped
9 | (1/1) Accurately ripped
10 | (1/1) Accurately ripped

==== Log checksum D857FE94702083C465DFF349E031FCEF78F121334754EC05CD48A9287EE407F4 ====
(.CUE)
EM GENRE "Oriental Metal"
REM DATE 2017
REM DISCID 930AB30A
REM COMMENT "ExactAudioCopy v1.3"
PERFORMER "Ignea"
TITLE "The Sign of Faith"
REM COMPOSER ""
FILE "01. Seytanu Akbar.flac" WAVE
TRACK 01 AUDIO
TITLE "Seytanu Akbar"
PERFORMER "Ignea"
REM COMPOSER ""
ISRC USHM91668519
INDEX 01 00:00:00
FILE "02. Alexandria.flac" WAVE
TRACK 02 AUDIO
TITLE "Alexandria"
PERFORMER "Ignea"
REM COMPOSER ""
ISRC USHM91668520
INDEX 01 00:00:00
FILE "03. Petrichor.flac" WAVE
TRACK 03 AUDIO
TITLE "Petrichor"
PERFORMER "Ignea"
REM COMPOSER ""
ISRC USHM91668521
INDEX 01 00:00:00
FILE "04. Theatre of Denial.flac" WAVE
TRACK 04 AUDIO
TITLE "Theatre of Denial"
PERFORMER "Ignea"
REM COMPOSER ""
ISRC USHM91668522
INDEX 01 00:00:00
FILE "05. Jahi.flac" WAVE
TRACK 05 AUDIO
TITLE "Jahi"
PERFORMER "Ignea"
REM COMPOSER ""
ISRC USHM91668523
INDEX 01 00:00:00
FILE "06. Halves Rapture.flac" WAVE
TRACK 06 AUDIO
TITLE "Halves Rapture"
PERFORMER "Ignea"
REM COMPOSER ""
ISRC USHM91668524
INDEX 01 00:00:00
FILE "07. Last Chosen By You.flac" WAVE
TRACK 07 AUDIO
TITLE "Last Chosen By You"
PERFORMER "Ignea"
REM COMPOSER ""
ISRC USHM91668525
INDEX 01 00:00:00
FILE "08. Alga.flac" WAVE
TRACK 08 AUDIO
TITLE "Alga"
PERFORMER "Ignea"
REM COMPOSER ""
ISRC USHM91668526
INDEX 01 00:00:00
FILE "09. How I Hate the Night.flac" WAVE
TRACK 09 AUDIO
TITLE "How I Hate the Night"
PERFORMER "Ignea"
REM COMPOSER ""
ISRC USHM91668527
INDEX 01 00:00:00
FILE "10. Leviathan (Ultra Sheriff cover).flac" WAVE
TRACK 10 AUDIO
TITLE "Leviathan (Ultra Sheriff cover)"
PERFORMER "Ignea"
REM COMPOSER ""
ISRC USHM91668528
INDEX 01 00:00:00


Якщо Ви справді бажаєте підтримати українське - після прослуховування, якщо музика вам сподобалась, придбайте ліцензійний диск. Підтримаймо вітчизняних виконавців!


Срібний реліз (на рейтинг впливає 50% завантаженого)
 Трекер:    Зареєстрований   

Завантажити / скачати українську музику



відео для новачків



 Зареєстрований:   2017-03-02 13:33
 Розмір:   430 MB 
 Оцінка музики:   10/10 (Голосів: 5)
   
kolpavel 
VIP


З нами з: 04.05.14
Востаннє: 23.05.17
Повідомлень: 1132

2017-02-24 16:52  
Ріп виконаний з промо-диска.

1 березня замінив на рiп з офіційного видання. Прохання перекачати.

push_k_in 
Новенький


З нами з: 16.03.13
Востаннє: 21.05.17
Повідомлень: 6

2017-03-01 22:28  
У торенті дві композиції під номером 06, однакові, хоча різні за побайтовим розміром та за md5 summ, можливо опинилися зі старого торенту, бо теги — шкереберть, з першої по шосту — є, з другої шостої по останню — нема (окрім року та жанру)...
P.S,
доречі 03. Petrichor насправді (feat. Yossi Sassi), я вже хтів відписатися до Ignea, щоб вони цю композицію якось показали Yossi Sassi, бо гадав вони самотужки той східний мотив вигадали

kolpavel 
VIP


З нами з: 04.05.14
Востаннє: 23.05.17
Повідомлень: 1132

2017-03-02 13:34  
Виправив.
push_k_in 
Новенький


З нами з: 16.03.13
Востаннє: 21.05.17
Повідомлень: 6

2017-03-02 18:32  
Дуже дякую!
fanDYNAMO 
Частий відвідувач


З нами з: 30.12.12
Востаннє: 09.05.17
Повідомлень: 42

2017-03-20 20:00  
Gap handling: Appended to previous track - параметр в EAC невірний...
POMEO 
Відео Гуртом - запис з ТБ
Відео Гуртом - запис з ТБ


З нами з: 01.07.08
Востаннє: 23.05.17
Повідомлень: 824

2017-04-28 22:59  
нова пісня українською мовою

Ваш часовий пояс: GMT + 2 Години

Нова тема   Відповісти