Усе або нічого / The Longest Yard (2005) 720p Ukr/Eng | Sub Eng

Нові коментарі

Нова тема   Відповісти
Останній раз роздавалося staf777 (2017-08-16)
Автор Повідомлення
staf777 
Відео Гуртом - підтримка та поширення
Відео Гуртом - підтримка та поширення


З нами з: 16.11.16
Востаннє: 16.08.17
Повідомлень: 522

2017-02-18 19:10  
Усе або нічого / The Longest Yard (2005) 720p Ukr/Eng | Sub Eng



Жанр: комедія, кримінальний, спорт
Країна: США



Кінокомпанія: Paramount Pictures, Columbia Pictures Corporation, Happy Madison Productions
Режисер: Пітер Сіґал / Peter Segal
Актори: Адам Сендлер / Adam Sandler, Кріс Рок / Chris Rock, Барт Рейнольдс / Burt Reynolds, Неллі / Nelly, Майкл Ірвін / Michael Irvin, Волтер Вільямсон / Walter Williamson, Білл Ґолдберґ / Bill Goldberg та інші

Сюжет:
Професійний футболіст, у минулому гравець Національної Футбольної Ліги, Пол Крю, потрапляє до в'язниці за водіння автівки у нетверезому стані. Начальник в’язниці Гейзен, замислив організувати футбольний матч між охоронцями та в'язнями, і пропонує Полові зібрати свою команду. Разом з цим, він обіцяє футболісту скоротити строк, якщо перемогу отримають охоронці. Чи поступиться Крю своїми принципами заради якнайшвидшого визволення, чи гідно боротиметься за перемогу?

Рімейк відомого однойменного фільму 1974 року з Бартом Рейнольдсом


Тривалість: 1:53:27
Якість: 720p
Відео:
кодек:
розмір кадру: 1280x542
бітрейт: 3933 кб/с

Аудіо # 1:
мова: українська
переклад: багатоголосий закадровий &
кодек: 2.0
бітрейт: 192 кб/с

Аудіо # 2:
мова: англійська
переклад: оригінал
кодек: 5.1
бітрейт: 384 кб/с

Субтитри:
мова: англійська
тип: програмні (м'які)
формат: *.srt
Info
General
Unique ID : 181899773583693501742136649012782532186 (0x88D89F40C798A2018C19733BE1C7865A)
Complete name : P:\HD українською » Фільми в HD\Комедія\The Longest Yard (2005) [Ukr,Eng sub.Eng] 720p [Hurtom].
Format :
Format version : Version 4 / Version 2
File size : 3.58 GiB
Duration : 1 h 53 min
Overall bit rate : 4 512 kb/s
Movie name : The Longest Yard (2005) [Ukr,Eng sub.Eng] 720p [Hurtom]
Encoded date : UTC 2017-02-18 16:40:40
Writing application : mkvmerge v9.8.0 ('Kuglblids') 64bit
Writing library : libebml v1.3.4 + libmatroska v1.4.5
Cover : Yes
Attachments : cover.jpg

Video
ID : 1
Format : AVC
Format/Info : Advanced Video Codec
Format profile : [email protected]
Format settings, CABAC : No
Format settings, ReFrames : 2 frames
Codec ID : V_MPEG4/ISO/AVC
Duration : 1 h 53 min
Bit rate : 3 933 kb/s
Width : 1 280 pixels
Height : 542 pixels
Display aspect ratio : 2.35:1
Frame rate mode : Constant
Frame rate : 23.976 (23976/1000) FPS
Color space : YUV
Chroma subsampling : 4:2:0
Bit depth : 8 bits
Scan type : Progressive
Bits/(Pixel*Frame) : 0.236
Stream size : 3.12 GiB (87%)
Title : Release for HDCLUB
Language : English
Default : Yes
Forced : No
Color range : Limited
Color primaries : BT.709
Transfer characteristics : BT.709
Matrix coefficients : BT.709

Audio #1
ID : 2
Format : AC-3
Format/Info : Audio Coding 3
Mode extension : CM (complete main)
Format settings, Endianness : Big
Codec ID : A_AC3
Duration : 1 h 53 min
Bit rate mode : Constant
Bit rate : 192 kb/s
Channel(s) : 2 channels
Channel positions : Front: L R
Sampling rate : 48.0 kHz
Frame rate : 31.250 FPS (1536 spf)
Bit depth : 16 bits
Compression mode : Lossy
Stream size : 156 MiB (4%)
Title : MVO, Новий канал & К1
Language : Ukrainian
Default : Yes
Forced : Yes

Audio #2
ID : 3
Format : AC-3
Format/Info : Audio Coding 3
Mode extension : CM (complete main)
Format settings, Endianness : Big
Codec ID : A_AC3
Duration : 1 h 53 min
Bit rate mode : Constant
Bit rate : 384 kb/s
Channel(s) : 6 channels
Channel positions : Front: L C R, Side: L R, LFE
Sampling rate : 48.0 kHz
Frame rate : 31.250 FPS (1536 spf)
Bit depth : 16 bits
Compression mode : Lossy
Stream size : 312 MiB (9%)
Language : English
Default : No
Forced : No

Text
ID : 4
Format : UTF-8
Codec ID : S_TEXT/UTF8
Codec ID/Info : UTF-8 Plain Text
Duration : 1 h 45 min
Bit rate : 75 b/s
Count of elements : 1590
Stream size : 58.4 KiB (0%)
Language : English
Default : No
Forced : No

Menu
00:00:00.000 : en:Trained Monkey
00:05:43.000 : en:A Very Public Break-Up
00:08:25.000 : en:Welcome To Allenville
00:14:52.000 : en:Hornet's Nest
00:21:30.000 : en:Football Tree-Outs
00:26:55.000 : en:Nate Scarborough
00:29:58.000 : en:Recruiting
00:35:00.000 : en:One On One
00:41:53.000 : en:Brokeded Nose
00:45:34.000 : en:Snitch
00:49:20.000 : en:There Goes The Neighborhood
00:53:51.000 : en:Acting Like Convicts
01:00:51.000 : en:Caretaker's Gifts
01:08:31.000 : en:Mean Machine
01:13:14.000 : en:Unsportsmanlike Conduct
01:19:25.000 : en:Schoolyard Bull$#!+
01:24:52.000 : en:Quite A Predicament
01:31:36.000 : en:Confession
01:38:01.000 : en:The Old Man's Turn
01:44:14.000 : en:Game Ball
Скріншоти



Джерело: &
Подяка POMEO та patriot2305 за український звук та BigMak за постер.


 Трекер:    Зареєстрований   

Завантажити / скачати фільм українською



відео для новачків



 Зареєстрований:   2017-02-18 19:58
 Розмір:   3.58 GB 
 Оцінка фільму:   9.5/10 (Голосів: 11)
   
Інші релізи
   Усе або нічого / The Longest Yard (2005) patriot2305  3 / 0   1.45 GB   2015-06-14 20:28 
Lil`Antoni 
VIP


З нами з: 25.02.12
Востаннє: 17.08.17
Повідомлень: 366

2017-02-18 19:27  
Супер, чекаю заміню свій 720 x 304 На цей Happy А 1080 планується ?
орінтовна є дата ? Чи як тільки та зразу ? :%)

Lil`Antoni 
VIP


З нами з: 25.02.12
Востаннє: 17.08.17
Повідомлень: 366

2017-02-18 22:09  
Таке ще питання ,тільки що звернув що це . А кращої вже немає якості цієї стрічки?

Я хоч побачив ще
1280x542
1920x816
1916x808
Та все це

igor911 
Відео Гуртом
Відео Гуртом


З нами з: 18.01.08
Востаннє: 18.08.17
Повідомлень: 7276

2017-02-19 00:59  
Lil`Antoni написано:
Таке ще питання

На blu-ray.com можеш відслідковувати, чи виходив фільм на блуреї.

Додано через 46 секунд:

цей не виходив і дати релізу теж немає

Lil`Antoni 
VIP


З нами з: 25.02.12
Востаннє: 17.08.17
Повідомлень: 366

2017-02-19 13:30  
igor911
Дякую за інформацію
Я правда здивованйи чому саме так Sad (1)
Дякую за покращений реліз

Ваш часовий пояс: GMT + 2 Години

Нова тема   Відповісти