Пряничний чоловічок / The Gingerbread Man (1998) 720p Ukr/Eng | Sub Eng

Нові коментарі

Нова тема   Відповісти
Останній раз роздавалося staf777 (2017-09-11)
Автор Повідомлення
staf777 
Відео Гуртом - підтримка та поширення
Відео Гуртом - підтримка та поширення


З нами з: 16.11.16
Востаннє: 11.09.17
Повідомлень: 522

2017-02-18 17:16  
Пряничний чоловічок / The Gingerbread Man (1998) 720p Ukr/Eng | Sub Eng

Пряничний чоловічок / The Gingerbread Man (1998) 720p Ukr/Eng | Sub Eng


Жанр: трилер
Країна: США



Кінокомпанія: Enchanter Entertainment, Island Pictures
Режисер: Роберт Алтмен / Robert Altman
Актори: Кеннет Брена / Kenneth Branagh, Ембет Девідц / Embeth Davidtz, Роберт Дауні мол. / Robert Downey Jr., Деріл Ганна / Daryl Hannah, Том Беренджер / Tom Berenger, Фамке Янссен / Famke Janssen, Мей Вітман / Mae Whitman та інші

Сюжет:
Успішний адвокат Рік Магрудер нещодавно розлучився з дружиною. У його активі - успішна кар'єра, бездоганна репутація. На одній з вечірок він знайомиться з привабливою офіціанткою Меллорі Досс. Рік не здогадувався, до чого призведе зустріч з цією жінкою. Потураючи її бажанням, він заплутується у павутині брехні, і це призводить до страшних наслідків.


Тривалість: 01:54:30
Якість: 720p
Відео:
кодек:
розмір кадру: 1280x694
бітрейт: 13261 кб/с

Аудіо # 1:
мова: українська
переклад: багатоголосий закадровий
кодек: 2.0
бітрейт: 192 кб/с

Аудіо # 2:
мова: англійська
переклад: оригінал
кодек: 5.1
бітрейт: 640 кб/с

Субтитри:
мова: англійська
тип: програмні (м'які)
формат: *.srt
Info
General
Unique ID : 254294429000811166082524517283313970868 (0xBF4F5357449162BA9734EF40F3436EB4)
Complete name : P:\HD українською » Фільми в HD\Трилер\The Gingerbread Man (1998) [Ukr,Eng sub.Eng] 720p [Hurtom].
Format :
Format version : Version 4 / Version 2
File size : 11.3 GiB
Duration : 1 h 54 min
Overall bit rate : 14.1 Mb/s
Movie name : The Gingerbread Man (1998) [Ukr,Eng sub.Eng] 720p [Hurtom]
Encoded date : UTC 2017-02-18 19:28:24
Writing application : mkvmerge v9.8.0 ('Kuglblids') 64bit
Writing library : libebml v1.3.4 + libmatroska v1.4.5
Cover : Yes
Attachments : cover.jpg

Video
ID : 1
Format : AVC
Format/Info : Advanced Video Codec
Format profile : [email protected]
Format settings, CABAC : Yes
Format settings, ReFrames : 9 frames
Codec ID : V_MPEG4/ISO/AVC
Duration : 1 h 54 min
Bit rate : 13.3 Mb/s
Width : 1 280 pixels
Height : 694 pixels
Display aspect ratio : 1.85:1
Frame rate mode : Constant
Frame rate : 23.976 (24000/1001) FPS
Color space : YUV
Chroma subsampling : 4:2:0
Bit depth : 8 bits
Scan type : Progressive
Bits/(Pixel*Frame) : 0.623
Stream size : 10.6 GiB (94%)
Writing library : core 148 r2638+53 bb29004 t_mod_Custom [[email protected] X86_64]
Encoding settings : cabac=1 / ref=9 / deblock=1:-3:-3 / analyse=0x3:0x133 / me=umh / subme=11 / psy=1 / fade_compensate=0.00 / psy_rd=0.85:0.05 / mixed_ref=1 / me_range=24 / chroma_me=1 / trellis=2 / 8x8dct=1 / cqm=0 / deadzone=21,11 / fast_pskip=0 / chroma_qp_offset=-3 / threads=6 / lookahead_threads=1 / sliced_threads=0 / nr=0 / decimate=1 / interlaced=0 / bluray_compat=0 / constrained_intra=0 / fgo=0 / bframes=11 / b_pyramid=2 / b_adapt=2 / b_bias=0 / direct=3 / weightb=1 / open_gop=0 / weightp=2 / keyint=250 / keyint_min=23 / scenecut=40 / intra_refresh=0 / rc_lookahead=60 / rc=crf / mbtree=0 / crf=17.0000 / qcomp=0.55 / qpmin=0:0:0 / qpmax=69:69:69 / qpstep=4 / vbv_maxrate=62500 / vbv_bufsize=78125 / crf_max=0.0 / nal_hrd=none / filler=0 / ip_ratio=1.40 / pb_ratio=1.30 / aq=1:0.65 / aq-sensitivity=10.00 / aq-factor=1.00:1.00:1.00 / aq2=0 / aq3=0
Language : English
Default : Yes
Forced : No
Color range : Limited
Color primaries : BT.709
Transfer characteristics : BT.709
Matrix coefficients : BT.709

Audio #1
ID : 2
Format : AC-3
Format/Info : Audio Coding 3
Mode extension : CM (complete main)
Format settings, Endianness : Big
Codec ID : A_AC3
Duration : 1 h 54 min
Bit rate mode : Constant
Bit rate : 192 kb/s
Channel(s) : 2 channels
Channel positions : Front: L R
Sampling rate : 48.0 kHz
Frame rate : 31.250 FPS (1536 spf)
Bit depth : 16 bits
Compression mode : Lossy
Stream size : 157 MiB (1%)
Title : UA-MVO, НЛО-TV / ТРК Україна
Language : Ukrainian
Default : Yes
Forced : Yes

Audio #2
ID : 3
Format : AC-3
Format/Info : Audio Coding 3
Mode extension : CM (complete main)
Format settings, Endianness : Big
Codec ID : A_AC3
Duration : 1 h 54 min
Bit rate mode : Constant
Bit rate : 640 kb/s
Channel(s) : 6 channels
Channel positions : Front: L C R, Side: L R, LFE
Sampling rate : 48.0 kHz
Frame rate : 31.250 FPS (1536 spf)
Bit depth : 16 bits
Compression mode : Lossy
Stream size : 524 MiB (5%)
Language : English
Default : No
Forced : No

Text
ID : 4
Format : UTF-8
Codec ID : S_TEXT/UTF8
Codec ID/Info : UTF-8 Plain Text
Duration : 1 h 46 min
Bit rate : 57 b/s
Count of elements : 1417
Stream size : 44.9 KiB (0%)
Language : English
Default : No
Forced : No

Menu
00:00:00.000 : en:00:00:00.000
00:13:57.669 : en:00:13:57.669
00:33:17.577 : en:00:33:17.577
00:50:10.548 : en:00:50:10.548
01:03:23.757 : en:01:03:23.757
01:16:26.622 : en:01:16:26.622
01:36:02.547 : en:01:36:02.547
01:50:14.565 : en:01:50:14.565
Скріншоти



Джерело: &
Подяки Sando7, voin747, patriot2305 за український звук


Срібний реліз (на рейтинг впливає 50% завантаженого)
 Трекер:    Зареєстрований   

Завантажити / скачати фільм українською



відео для новачків



 Зареєстрований:   2017-02-18 23:18
 Розмір:   11.27 GB 
 Оцінка фільму:   10/10 (Голосів: 2)
   
Інші релізи
hetzendorf 
Відео Гуртом - підтримка та поширення
Відео Гуртом - підтримка та поширення


З нами з: 23.07.15
Востаннє: 17.10.17
Повідомлень: 486

2017-04-08 22:44  
На диво чудовий детективний трилер, шкода, що так недооцінений на imdb
10/10

Ваш часовий пояс: GMT + 2 Години

Нова тема   Відповісти