Червона фракція: Походження / Red Faction: Origins (2011) Remux 1080p Ukr/Eng | Sub Eng

Нові коментарі

Нова тема   Відповісти
Автор Повідомлення
staf777 
Відео Гуртом - підтримка та поширення
Відео Гуртом - підтримка та поширення


З нами з: 16.11.16
Востаннє: 22.09.20
Повідомлень: 4027

2017-02-18 16:39  
Червона фракція: Походження / Red Faction: Origins (2011) Remux 1080p Ukr/Eng | Sub Eng


Жанр: фантастика
Країна: США



Режисер: Майкл Нанкін
Актори: Роберт Патрік, Темзін Мерчант, Брайан Дж. Сміт, Кейт Вернон, Девон грай, Гарет Девід-Ллойд, Даніель Ніколет, Ана Мулві-Тен, Роджер Ештон-Гріффітс, Гордон Кеннеді

Сюжет:
Дія фільму розгортається через 25 років після подій гри "Червона фракція: Партизан", коли Марс був звільнений від репресивних Сил оборони Землі, які майже знищили цивільне населення на Марсі.

Мстиві вороги Алека Мейсона вбили його дружину Самані і викрали дочку Ліру. Син Алека Мейсона Джейк, що залишився живим, вирушає на пошуки сестри, стикається з новими атаками ворога і виявляє, що Ліра стала холоднокровним солдатом з іншого боку барикад.


Тривалість: 01:31:21
Якість: Remux 1080p
Відео:
кодек:
розмір кадру: 1920x1080
бітрейт: 19954 кб/с

Аудіо # 1:
мова: українська
переклад: багатоголосий закадровий
кодек: 2.0
бітрейт: 192 кб/с

Аудіо # 2:
мова: англійська
переклад: оригінал
кодек: -HD MA 5.1
бітрейт: 2048 кб/с

Субтитри:
мова: англійська
тип: пререндерні
формат: PGS
Джерело озвучення:

МІ
General
Unique ID : 214867811057071299261601713602675754519 (0xA1A608FEEEF473409945556824D64617)
Complete name : P:\HD українською » Фільми в HD\Фантастика\Red Faction Origins (2011) [Ukr,Eng sub.Eng] Remux 1080p [Hurtom].
Format :
Format version : Version 4 / Version 2
File size : 14.2 GiB
Duration : 1 h 31 min
Overall bit rate mode : Variable
Overall bit rate : 22.2 Mb/s
Movie name : Red Faction: Origins (2011) [Ukr,Eng sub.Eng] Remux 1080p [Hurtom]
Encoded date : UTC 2017-02-19 15:03:06
Writing application : v9.8.0 ('Kuglblids') 64bit
Writing library : libebml v1.3.4 + v1.4.5

Video
ID : 1
Format : AVC
Format/Info : Advanced Video Codec
Format profile : [email protected]
Format settings, CABAC : Yes
Format settings, ReFrames : 3 frames
Format settings, GOP : M=3, N=12
Codec ID : V_MPEG4/ISO/AVC
Duration : 1 h 31 min
Bit rate mode : Variable
Bit rate : 20.0 Mb/s
Maximum bit rate : 25.0 Mb/s
Width : 1 920 pixels
Height : 1 080 pixels
Display aspect ratio : 16:9
Frame rate mode : Constant
Frame rate : 23.976 (24000/1001) FPS
Standard : NTSC
Color space : YUV
Chroma subsampling : 4:2:0
Bit depth : 8 bits
Scan type : Progressive
Bits/(Pixel*Frame) : 0.401
Stream size : 12.7 GiB (90%)
Default : Yes
Forced : No
Color range : Limited
Color primaries : BT.709
Transfer characteristics : BT.709
Matrix coefficients : BT.709

Audio #1
ID : 2
Format : AC-3
Format/Info : Audio Coding 3
Mode extension : CM (complete main)
Format settings, Endianness : Big
Codec ID : A_AC3
Duration : 1 h 29 min
Bit rate mode : Constant
Bit rate : 192 kb/s
Channel(s) : 2 channels
Channel positions : Front: L R
Sampling rate : 48.0 kHz
Frame rate : 31.250 FPS (1536 spf)
Bit depth : 16 bits
Compression mode : Lossy
Stream size : 123 MiB (1%)
Language : Ukrainian
Default : Yes
Forced : Yes

Audio #2
ID : 3
Format :
Format/Info : Digital Theater Systems
Format profile : MA / Core
Mode : 16
Format settings, Endianness : Big
Codec ID : A_DTS
Duration : 1 h 31 min
Bit rate mode : Variable / Constant
Bit rate : 2 048 kb/s / 1 509 kb/s
Channel(s) : 6 channels
Channel positions : Front: L C R, Side: L R, LFE
Sampling rate : 48.0 kHz
Frame rate : 93.750 FPS (512 spf)
Bit depth : 16 bits
Compression mode : Lossless / Lossy
Stream size : 1.31 GiB (9%)
Language : English
Default : No
Forced : No

Text
ID : 4
Format : PGS
Muxing mode : zlib
Codec ID : S_HDMV/PGS
Codec ID/Info : Picture based subtitle format used on BDs/HD-DVDs
Duration : 1 h 26 min
Bit rate : 5 646 b/s
Count of elements : 1978
Stream size : 3.50 MiB (0%)
Language : English
Default : No
Forced : No

Скріншоти







Джерело: &
Особиста оцінка: 0 - не дивився
ЗАЛИШАЙТЕСЬ ЯКОМОГА ДОВШЕ НА РОЗДАЧІ!

СКАЧАВ САМ - ДАЙ СКАЧАТИ ІНШИМ



Золотий реліз (завантажене не впливає на рейтинг)
 Трекер:    Зареєстрований   

Завантажити / скачати фільм українською



відео для новачків



 Зареєстрований:   2017-02-19 19:12
 Розмір:   14.17 GB 
 Оцінка фільму:   8.7/10 (Голосів: 7)
   
Інші релізи
Ваш часовий пояс: GMT + 2 Години

Нова тема   Відповісти