Нова ера Z / The Girl with All the Gifts (2016) Remux 1080p Ukr/Eng | Sub Eng

Нові коментарі

Нова тема   Відповісти
Автор Повідомлення
AngryBirdsUA 
Свій


З нами з: 24.02.10
Востаннє: 16.01.18
Повідомлень: 3043

2017-02-17 18:13  
Нова ера Z / The Girl with All the Gifts (2016) Remux 1080p Ukr/Eng | Sub Eng

Нова ера Z / The Girl with All the Gifts (2016) Remux 1080p Ukr/Eng | Sub Eng


Жанр: драма, трилер, жахи
Країна: США, Велика Британія



Кінокомпанія: BFI Film Fund, Warner Bros., Altitude Film
Режисер: Колм МакКарті
Актори: Джемма Артертон, Сенніа Нануа, Ґленн Клоуз, Педді Консідайн, Анамарія Марінка, Домінік Тіппер, Фісайо Акінаде, Ентоні Велш, Деніел Іґан

Сюжет:
Майбутнє. Планета заражена смертоносною грибковою спорою. Головна героїня Мелані на перший погляд здається зовсім звичайною. Але насправді дівчина володіє феноменальним рівнем IQ, а в її крові живе смертельний вірус. Мелані разом з декількома ровесницями схована урядом в засекреченому військовому бункері, який знаходиться під землею. З їхньою допомогою вчені прагнуть знайти вакцину від смертельної інфекції. Одного разу, всім доведеться покинути бункер. А Мелані стане останньою надією людства на порятунок.


Тривалість: 01:50:55
Якість: Remux
Відео:
кодек:
розмір кадру: 1920 х 1080
бітрейт: 33.8 Mb/s

Аудіо # 1:
мова: українська
переклад: багатоголосий закадровий
кодек: -HD MA 5.1
бітрейт: 3840 кб/с

Аудіо # 2:
мова: англійська
переклад: оригінал
кодек: -HD MA 5.1
бітрейт: 2048 кб/с

Субтитри:
мова: англійська
тип: програмні (м'які)
формат: *.srt
Info
Unique ID : 230771806244820837896807578879511127198 (0xAD9D087F94978498B7A77FA9647E649E)
Complete name : D:\The Girl with All the Gifts (2016) Remux 1080p [Ukr.Eng] [Sub Eng] [Hurtom].
Format :
Format version : Version 4 / Version 2
File size : 30.7 GiB
Duration : 1 h 50 min
Overall bit rate mode : Variable
Overall bit rate : 39.7 Mb/s
Encoded date : UTC 2017-02-17 15:50:40
Writing application : mkvmerge v7.8.0 ('River Man') 32bit built on Apr 3 2015 12:11:22
Writing library : libebml v1.3.1 + libmatroska v1.4.2
Attachments : poster.jpg

Video
ID : 1
Format : AVC
Format/Info : Advanced Video Codec
Format profile : [email protected]
Format settings, CABAC : Yes
Format settings, ReFrames : 3 frames
Codec ID : V_MPEG4/ISO/AVC
Duration : 1 h 50 min
Bit rate mode : Variable
Bit rate : 33.8 Mb/s
Maximum bit rate : 34.9 Mb/s
Width : 1 920 pixels
Height : 1 080 pixels
Display aspect ratio : 16:9
Frame rate mode : Constant
Frame rate : 23.976 (24000/1001) FPS
Color space : YUV
Chroma subsampling : 4:2:0
Bit depth : 8 bits
Scan type : Progressive
Bits/(Pixel*Frame) : 0.681
Stream size : 26.2 GiB (85%)
Language : English
Default : Yes
Forced : No

Audio #1
ID : 2
Format :
Format/Info : Digital Theater Systems
Format profile : MA / Core
Mode : 16
Format settings, Endianness : Big
Codec ID : A_DTS
Duration : 1 h 50 min
Bit rate mode : Variable / Constant
Bit rate : 3 840 kb/s / 1 509 kb/s
Channel(s) : 6 channels
Channel positions : Front: L C R, Side: L R, LFE
Sampling rate : 48.0 kHz
Frame rate : 93.750 FPS (512 spf)
Bit depth : 24 bits
Compression mode : Lossless / Lossy
Stream size : 2.92 GiB (9%)
Language : Ukrainian
Default : Yes
Forced : No

Audio #2
ID : 3
Format :
Format/Info : Digital Theater Systems
Format profile : MA / Core
Mode : 16
Format settings, Endianness : Big
Codec ID : A_DTS
Duration : 1 h 50 min
Bit rate mode : Variable / Constant
Bit rate : 2 048 kb/s / 1 509 kb/s
Channel(s) : 6 channels
Channel positions : Front: L C R, Side: L R, LFE
Sampling rate : 48.0 kHz
Frame rate : 93.750 FPS (512 spf)
Bit depth : 16 bits
Compression mode : Lossless / Lossy
Stream size : 1.58 GiB (5%)
Title : Original
Language : English
Default : No
Forced : No

Text
ID : 4
Format : UTF-8
Codec ID : S_TEXT/UTF8
Codec ID/Info : UTF-8 Plain Text
Duration : 1 h 45 min
Bit rate : 41 b/s
Count of elements : 1081
Stream size : 32.4 KiB (0%)
Title : Full
Language : English
Default : No
Forced : No

Menu
00:00:00.000 : en:00:00:00.000
00:09:22.312 : en:00:09:22.312
00:17:59.537 : en:00:17:59.537
00:31:09.826 : en:00:31:09.826
00:41:11.636 : en:00:41:11.636
00:48:34.453 : en:00:48:34.453
00:58:38.807 : en:00:58:38.807
01:07:45.561 : en:01:07:45.561
01:18:03.137 : en:01:18:03.137
01:25:42.679 : en:01:25:42.679
01:36:59.772 : en:01:36:59.772
01:45:52.930 : en:01:45:52.930


Джерело:


Золотий реліз (завантажене не впливає на рейтинг)
 Трекер:    Зареєстрований   

Завантажити / скачати фільм українською



відео для новачків



 Зареєстрований:   2017-02-17 18:13
 Розмір:   30.72 GB 
 Оцінка фільму:   5.4/10 (Голосів: 24)
   
Інші релізи
igor911 
Відео Гуртом
Відео Гуртом


З нами з: 18.01.08
Востаннє: 16.01.18
Повідомлень: 8855

2017-02-17 19:39  
AngryBirdsUA, рекомендую додавати також другою доріжкою укр.звук в 5.1 640 Кбіт/с - дуже багато скарг від користувачів, що їх телеки не підтримують ДТС. На 30 з гаком гігах ті 0,5 Гб вже не грають ролі.
AngryBirdsUA 
Свій


З нами з: 24.02.10
Востаннє: 16.01.18
Повідомлень: 3043

2017-02-17 19:42  
В 1080p можна. Доріжку надам.
staf777 
Попереджень: 1
Попереджень: 1 


З нами з: 16.11.16
Востаннє: 16.01.18
Повідомлень: 558

2017-02-18 07:39  
AngryBirdsUA
Дайте будь ласка

ВАВУНЯ 
Поважний учасник


З нами з: 30.06.15
Востаннє: 16.01.18
Повідомлень: 176

2017-04-22 12:42  
нецікава, повна нелогічностей і недоречностей стрічка.
"прокатники" про це знали і тому переклали назву стрічки так, щоб хоча б якось, за рахунок "Всесвітньої Війни Z, "продати" цю маячню глядачам.

1/10

Ваш часовий пояс: GMT + 2 Години

Нова тема   Відповісти