Мільйони Брюстера / Brewster's Millions (1985) 1080p Ukr/Eng | Sub Eng

Нові коментарі

Нова тема   Відповісти
Автор Повідомлення
staf777 
Відео Гуртом - підтримка та поширення
Відео Гуртом - підтримка та поширення


З нами з: 16.11.16
Востаннє: 11.09.17
Повідомлень: 522

2017-02-17 17:51  
Мільйони Брюстера / Brewster's Millions (1985) 1080p Ukr/Eng | Sub Eng

Мільйони Брюстера / Brewster's Millions (1985) 1080p Ukr/Eng | Sub Eng


Жанр: комедія
Країна: США



Кінокомпанія: Universal Pictures, Davis Entertainment, Lawrence Gordon Productions, Silver Pictures
Режисер: Волтер Гіл / Walter Hill
Актори: Річард Прайор / Richard Pryor, Джон Кенді / John Candy, Лонетт МакКі / Lonette McKee, Стівен Коллінз / Stephen Collins, Джері Орбак / Jerry Orbach, Пет Гінґл / Pat Hingle, Това Фелдшух / Tovah Feldshuh, Г'юм Кронін / Hume Cronyn, Джо Ґріфазі / Joe Grifasi, Пітер Джейсон / Peter Jason та інші

Сюжет:
Сюжет фільму будується на тому, що гравець бейсбольної команди отримує від померлого ексцентричного родича (білого мільйонера) спадщину в сотні мільйонів доларів. Однак не все так просто. У заповіті є підступний пункт. Шкідливий стариган вказав у записаному на кіноплівку заповіті, що повністю суму спадкоємець отримає лише в тому випадку, якщо за місяць зможе витратити 30 мільйонів доларів до останнього цента.


Тривалість: 01:41:09
Якість: 1080p
Відео:
кодек:
розмір кадру: 1920x1040
бітрейт: 19894 кб/с

Аудіо # 1:
мова: українська
переклад: багатоголосий закадровий
кодек: 2.0
бітрейт: 192 кб/с

Аудіо # 2:
мова: англійська
переклад: оригінал
кодек: FLAC 2.0
бітрейт: 605 кб/с

Субтитри#1-2:
мова: англійська
тип: програмні (м'які)
формат: *.srt
Info
General
Unique ID : 170438070615960392803577154013575688871 (0x80392DAAB9424DF99118A23E038AB2A7)
Complete name : P:\HD українською » Фільми в HD\Комедія\Brewster's Millions (1985) [Ukr,Eng sub.Eng] 1080p [Hurtom].
Format :
Format version : Version 4 / Version 2
File size : 14.6 GiB
Duration : 1 h 41 min
Overall bit rate mode : Variable
Overall bit rate : 20.7 Mb/s
Movie name : Brewster's Millions (1985) [Ukr,Eng sub.Eng] 1080p [Hurtom]
Encoded date : UTC 2017-02-18 14:21:25
Writing application : mkvmerge v9.8.0 ('Kuglblids') 64bit
Writing library : libebml v1.3.4 + libmatroska v1.4.5
Cover : Yes
Attachments : cover.jpg

Video
ID : 1
Format : AVC
Format/Info : Advanced Video Codec
Format profile : [email protected]
Format settings, CABAC : Yes
Format settings, ReFrames : 4 frames
Codec ID : V_MPEG4/ISO/AVC
Duration : 1 h 41 min
Bit rate : 19.9 Mb/s
Width : 1 918 pixels
Height : 1 040 pixels
Display aspect ratio : 1.85:1
Frame rate mode : Constant
Frame rate : 23.976 (24000/1001) FPS
Color space : YUV
Chroma subsampling : 4:2:0
Bit depth : 8 bits
Scan type : Progressive
Bits/(Pixel*Frame) : 0.416
Stream size : 14.1 GiB (96%)
Writing library : core 148 r2705+54 9f484c1 t_mod_Custom [[email protected] X86_64]
Encoding settings : cabac=1 / ref=4 / deblock=1:-3:-3 / analyse=0x3:0x133 / me=umh / subme=10 / psy=1 / fade_compensate=0.00 / psy_rd=1.00:0.00 / mixed_ref=1 / me_range=24 / chroma_me=1 / trellis=2 / 8x8dct=1 / cqm=0 / deadzone=21,11 / fast_pskip=1 / chroma_qp_offset=-2 / threads=6 / lookahead_threads=1 / sliced_threads=0 / nr=0 / decimate=1 / interlaced=0 / bluray_compat=0 / constrained_intra=0 / fgo=0 / bframes=10 / b_pyramid=2 / b_adapt=2 / b_bias=0 / direct=3 / weightb=1 / open_gop=0 / weightp=2 / keyint=250 / keyint_min=23 / scenecut=40 / intra_refresh=0 / rc=2pass / mbtree=0 / bitrate=19900 / ratetol=1.0 / qcomp=0.65 / qpmin=0:0:0 / qpmax=69:69:69 / qpstep=4 / cplxblur=20.0 / qblur=0.5 / ip_ratio=1.30 / pb_ratio=1.20 / aq=1:0.65 / aq-sensitivity=10.00 / aq-factor=1.00:1.00:1.00 / aq2=0 / aq3=0
Language : English
Default : Yes
Forced : No
Color range : Limited
Matrix coefficients : BT.709

Audio #1
ID : 2
Format : AC-3
Format/Info : Audio Coding 3
Mode extension : CM (complete main)
Format settings, Endianness : Big
Codec ID : A_AC3
Duration : 1 h 41 min
Bit rate mode : Constant
Bit rate : 192 kb/s
Channel(s) : 2 channels
Channel positions : Front: L R
Sampling rate : 48.0 kHz
Frame rate : 31.250 FPS (1536 spf)
Bit depth : 16 bits
Compression mode : Lossy
Stream size : 139 MiB (1%)
Language : Ukrainian
Default : Yes
Forced : Yes

Audio #2
ID : 3
Format : FLAC
Format/Info : Free Lossless Audio Codec
Codec ID : A_FLAC
Duration : 1 h 41 min
Bit rate mode : Variable
Bit rate : 605 kb/s
Channel(s) : 2 channels
Channel positions : Front: L R
Sampling rate : 48.0 kHz
Frame rate : 11.719 FPS (4096 spf)
Bit depth : 16 bits
Stream size : 438 MiB (3%)
Writing library : libFLAC 1.2.1 (UTC 2007-09-17)
Language : English
Default : No
Forced : No

Text #1
ID : 4
Format : UTF-8
Codec ID : S_TEXT/UTF8
Codec ID/Info : UTF-8 Plain Text
Duration : 1 h 40 min
Bit rate : 96 b/s
Count of elements : 1739
Stream size : 71.5 KiB (0%)
Language : English
Default : No
Forced : No

Text #2
ID : 5
Format : UTF-8
Codec ID : S_TEXT/UTF8
Codec ID/Info : UTF-8 Plain Text
Duration : 1 h 40 min
Bit rate : 96 b/s
Count of elements : 1739
Stream size : 71.1 KiB (0%)
Title : SDH
Language : English
Default : No
Forced : No

Menu
00:00:00.000 : en:00:00:00.000
00:08:20.333 : en:00:08:20.333
00:14:46.135 : en:00:14:46.135
00:21:21.030 : en:00:21:21.030
00:28:53.774 : en:00:28:53.774
00:40:02.609 : en:00:40:02.609
00:48:02.213 : en:00:48:02.213
00:57:42.084 : en:00:57:42.084
01:05:50.989 : en:01:05:50.989
01:18:10.519 : en:01:18:10.519
01:28:34.309 : en:01:28:34.309
01:38:01.751 : en:01:38:01.751
Скріншоти



Подяка РОМЕО за запис та omm за зведення української доріжки
Джерело: &
Особиста оцінка: 8 - мені сподобалося
Мільйони Брюстера / Brewster's Millions (1985) 1080p Ukr/Eng | Sub Eng


Срібний реліз (на рейтинг впливає 50% завантаженого)
 Трекер:    Зареєстрований   

Завантажити / скачати фільм українською



відео для новачків



 Зареєстрований:   2017-02-18 18:11
 Розмір:   14.62 GB 
 Оцінка фільму:   9.3/10 (Голосів: 8)
   
Інші релізи
ExtremeCat 
Свій


З нами з: 12.10.10
Востаннє: 17.10.17
Повідомлень: 120

2017-02-18 15:07  
ДУЖЕ чекаю)
Lil`Antoni 
VIP


З нами з: 25.02.12
Востаннє: 14.10.17
Повідомлень: 401

2017-02-18 16:06  
Супер фільм
Ваш часовий пояс: GMT + 2 Години

Нова тема   Відповісти