Поганий Санта 2 / Bad Santa 2 (2016) Remux 1080p Ukr/Eng | Sub Eng

Нові коментарі

Нова тема   Відповісти
Автор Повідомлення
staf777 
Відео Гуртом - підтримка та поширення
Відео Гуртом - підтримка та поширення


З нами з: 16.11.16
Востаннє: 16.03.17
Повідомлень: 523

2017-02-17 11:09  
Поганий Санта 2 / Bad Santa 2 (2016) Remux 1080p Ukr/Eng | Sub Eng

Поганий Санта 2 / Bad Santa 2 (2016) Remux 1080p Ukr/Eng | Sub Eng
Оригінальна обкладинка

Поганий Санта 2 / Bad Santa 2 (2016) Remux 1080p Ukr/Eng | Sub Eng
Жанр: комедія, кримінальний
Країна: США



Кінокомпанія: Broad Green Pictures, Ingenious Media, Miramax
Режисер: Марк Вотерс
Актори: Біллі Боб Торнтон, Крістіна Гендрікс, Кеті Бейтс, Тоні Кокс, Бретт Келлі, Раян Гансен, Дженні Зіґріно, Джефф Сковрон, Крістіна Розато, Октавія Спенсер

Сюжет:
А він все п'є та не пропускає повз жодної спідниці, і хоче в переддень Різдва заробити легких грошей. В костюмі Санти Віллі збирається вкрасти два мільйони у благодійної компанії в Чикаго. Цього разу його команда складатиметься не тільки з карлика Маркуса, а ще й з мами Віллі - Санні. Ще більш чорна і мерзенна комедія, яка несе в собі глибокий сенс. Які ж чари трапляться з Віллі на Різдво цього разу?


Тривалість: 01:32:16
Якість: Remux 1080p
Відео:
кодек:
розмір кадру: 1920x1080
бітрейт: 34,2 Mб/с

Аудіо # 1:
мова: українська
переклад: багатоголосий закадровий
кодек: 2.0
бітрейт: 192 кб/с
Увага! В проміжку 30хв 08 сек по 31хв 39 немає перекладу. У прокаті наших кінотеатрів цю частину фільму вирізали.
Аудіо # 2:
мова: англійська
переклад: оригінал
кодек: -HD MA5.1
бітрейт: 3519 кб/с

Субтитри:
мова: англійська
тип: пререндерні
формат: *.pgs
Info
General
Unique ID : 240808931275931769122989586231485217475 (0xB52A1CF82FA92F5C801C7F8339933AC3)
Complete name : P:\HD українською » Фільми в HD\Комедія\Bad Santa 2 (2016) [Ukr,Eng sub.Eng] Remux 1080p [Hurtom].
Format :
Format version : Version 4 / Version 2
File size : 24.4 GiB
Duration : 1 h 32 min
Overall bit rate mode : Variable
Overall bit rate : 37.9 Mb/s
Movie name : Bad Santa 2 (2016) [Ukr,Eng sub.Eng] Remux 1080p [Hurtom]
Encoded date : UTC 2017-02-17 08:43:34
Writing application : mkvmerge v9.8.0 ('Kuglblids') 64bit
Writing library : libebml v1.3.4 + libmatroska v1.4.5

Video
ID : 1
Format : AVC
Format/Info : Advanced Video Codec
Format profile : [email protected]
Format settings, CABAC : Yes
Format settings, ReFrames : 4 frames
Codec ID : V_MPEG4/ISO/AVC
Duration : 1 h 32 min
Bit rate mode : Variable
Bit rate : 34.2 Mb/s
Maximum bit rate : 36.5 Mb/s
Width : 1 920 pixels
Height : 1 080 pixels
Display aspect ratio : 16:9
Frame rate mode : Constant
Frame rate : 23.976 (24000/1001) FPS
Color space : YUV
Chroma subsampling : 4:2:0
Bit depth : 8 bits
Scan type : Progressive
Bits/(Pixel*Frame) : 0.688
Stream size : 22.0 GiB (90%)
Default : Yes
Forced : No

Audio #1
ID : 2
Format : AC-3
Format/Info : Audio Coding 3
Mode extension : CM (complete main)
Format settings, Endianness : Big
Codec ID : A_AC3
Duration : 1 h 32 min
Bit rate mode : Constant
Bit rate : 192 kb/s
Channel(s) : 2 channels
Channel positions : Front: L R
Sampling rate : 48.0 kHz
Frame rate : 31.250 FPS (1536 spf)
Bit depth : 16 bits
Compression mode : Lossy
Stream size : 127 MiB (1%)
Language : Ukrainian
Default : Yes
Forced : Yes

Audio #2
ID : 3
Format :
Format/Info : Digital Theater Systems
Format profile : MA / Core
Mode : 16
Format settings, Endianness : Big
Codec ID : A_DTS
Duration : 1 h 32 min
Bit rate mode : Variable / Constant
Bit rate : 3 519 kb/s / 1 509 kb/s
Channel(s) : 6 channels
Channel positions : Front: L C R, Side: L R, LFE
Sampling rate : 48.0 kHz
Frame rate : 93.750 FPS (512 spf)
Bit depth : 24 bits
Compression mode : Lossless / Lossy
Stream size : 2.27 GiB (9%)
Language : English
Default : No
Forced : No

Text
ID : 4
Format : PGS
Muxing mode : zlib
Codec ID : S_HDMV/PGS
Codec ID/Info : Picture based subtitle format used on BDs/HD-DVDs
Duration : 1 h 25 min
Bit rate : 20.9 kb/s
Count of elements : 2912
Stream size : 12.8 MiB (0%)
Language : English
Default : No
Forced : No
Скріншоти



За українську доріжку подяка пану Covenant

За допомогу з придбанням звуку на цей фільм подяка ведучим цієї теми" Контент для придбання" заходьте туди і підтримуйте
Джерело: &
Особиста оцінка: 8 - мені сподобалося
Поганий Санта 2 / Bad Santa 2 (2016) Remux 1080p Ukr/Eng | Sub Eng


Золотий реліз (завантажене не впливає на рейтинг)
 Трекер:    Зареєстрований   

Завантажити / скачати фільм українською



відео для новачків



 Зареєстрований:   2017-02-17 12:47
 Розмір:   24.44 GB 
 Оцінка фільму:   8.8/10 (Голосів: 5)
   
Інші релізи
   Поганий Санта 2 / Bad Santa 2 (2016) 720p Ukr/Eng | Sub Eng 11FrYkT  4 / 0   2.07 GB   2017-02-19 18:00 
   Поганий Санта 2 / Bad Santa 2 (2016) 1080p Ukr/Eng | Sub Eng 11FrYkT  4 / 0   7.17 GB   2017-02-18 18:02 
   Поганий Санта 2 / Bad Santa 2 (2016) Ukr/Eng Covenant  24 / 4   1.45 GB   2017-02-17 01:09 
Ваш часовий пояс: GMT + 2 Години

Нова тема   Відповісти