Завантажити та скачати торренти українською


Райське озеро / Eden Lake (2008) Remux 1080p Ukr/Eng | Sub Eng

Нові коментарі

Нова тема   Відповісти
Автор Повідомлення
staf777 
Відео Гуртом - підтримка та поширення
Відео Гуртом - підтримка та поширення


З нами з: 16.11.16
Востаннє: 20.02.17
Повідомлень: 478

2017-02-16 21:16  
Райське озеро / Eden Lake (2008) Remux 1080p Ukr/Eng | Sub Eng

Райське озеро / Eden Lake (2008) Remux 1080p Ukr/Eng | Sub Eng
Оригінальна обкладинка

Райське озеро / Eden Lake (2008) Remux 1080p Ukr/Eng | Sub Eng
Жанр: жахи, трилер, кримінальний
Країна: Велика Британія



Кіностудія / кінокомпанія: Rollercoaster Films, Aramid Entertainment Fund
Режисер: Джеймс Воткінс
Актори: Келлі Райллі, Майкл Фассбендер, Тара Елліс, Джек О’Коннелл, Фінн Аткінс, Джумейн Хантер, Томас Тургус, Джеймс Берроуз, Томас Гілл, Лоррейн Брюс та інші

Сюжет:
Молода парочка їде за місто, щоб провести романтичний вікенд на березі Райського озера далеко від людей, в дикому лісі. Стів і Дженні планують одружитися, прожити довго і померти в один день. Ніхто з них не думав, чим закінчиться ця поїздка.


Тривалість: 01:30:57
Якість: Remux 1080p
Відео:
кодек:
розмір кадру: 1920x1080
бітрейт: 19992 Кбіт/сек

Аудіо # 1:
мова: українська
переклад: двоголосий закадровий
кодек: 5.1
бітрейт: 448 кб/с

Аудіо # 2:
мова: англійська
переклад: оригінал
кодек: HD MA 5.1
бітрейт: 2048 Кбіт/сек

Джерело озвучення:


Субтитри:
мова: англійська
тип: пререндерні
формат: pgs

Info
Код:
General
Unique ID                                : 185152765827483467792315083738380944698 (0x8B4B20274709109CA016815A12F2C53A)
Complete name                            : P:\HD українською » Фільми в HD\Жахи\Eden Lake (2008) [Ukr,Eng sub.Eng] Remux 1080p [Hurtom].
Format                                   :
Format version                           : Version 4 / Version 2
File size                                : 14.3 GiB
Duration                                 : 1 h 30 min
Overall bit rate mode                    : Variable
Overall bit rate                         : 22.5 Mb/s
Movie name                               :  Eden Lake (2008) [Ukr,Eng sub.Eng] Remux 1080p [Hurtom]
Encoded date                             : UTC 2017-02-17 10:15:37
Writing application                      : mkvmerge v9.8.0 ('Kuglblids') 64bit
Writing library                          : libebml v1.3.4 + libmatroska v1.4.5

Video
ID                                       : 1
Format                                   : AVC
Format/Info                              : Advanced Video Codec
Format profile                           : High@L4.1
Format settings, CABAC                   : Yes
Format settings, ReFrames                : 4 frames
Codec ID                                 : V_MPEG4/ISO/AVC
Duration                                 : 1 h 30 min
Bit rate mode                            : Variable
Bit rate                                 : 20.0 Mb/s
Maximum bit rate                         : 33.0 Mb/s
Width                                    : 1 920 pixels
Height                                   : 1 080 pixels
Display aspect ratio                     : 16:9
Frame rate mode                          : Constant
Frame rate                               : 24.000 FPS
Color space                              : YUV
Chroma subsampling                       : 4:2:0
Bit depth                                : 8 bits
Scan type                                : Progressive
Bits/(Pixel*Frame)                       : 0.402
Stream size                              : 12.7 GiB (89%)
Default                                  : Yes
Forced                                   : No
Color range                              : Limited
Color primaries                          : BT.709
Transfer characteristics                 : BT.709
Matrix coefficients                      : BT.709

Audio #1
ID                                       : 2
Format                                   : AC-3
Format/Info                              : Audio Coding 3
Mode extension                           : CM (complete main)
Format settings, Endianness              : Big
Codec ID                                 : A_AC3
Duration                                 : 1 h 30 min
Bit rate mode                            : Constant
Bit rate                                 : 448 kb/s
Channel(s)                               : 6 channels
Channel positions                        : Front: L C R, Side: L R, LFE
Sampling rate                            : 48.0 kHz
Frame rate                               : 31.250 FPS (1536 spf)
Bit depth                                : 16 bits
Compression mode                         : Lossy
Stream size                              : 291 MiB (2%)
Language                                 : Ukrainian
Default                                  : Yes
Forced                                   : Yes

Audio #2
ID                                       : 3
Format                                   :
Format/Info                              : Digital Theater Systems
Format profile                           : MA / Core
Mode                                     : 16
Format settings, Endianness              : Big
Codec ID                                 : A_DTS
Duration                                 : 1 h 30 min
Bit rate mode                            : Variable / Constant
Bit rate                                 : 2 048 kb/s / 1 509 kb/s
Channel(s)                               : 6 channels
Channel positions                        : Front: L C R, Side: L R, LFE
Sampling rate                            : 48.0 kHz
Frame rate                               : 93.750 FPS (512 spf)
Bit depth                                : 16 bits
Compression mode                         : Lossless / Lossy
Stream size                              : 1.31 GiB (9%)
Language                                 : English
Default                                  : No
Forced                                   : No

Text
ID                                       : 4
Format                                   : PGS
Muxing mode                              : zlib
Codec ID                                 : S_HDMV/PGS
Codec ID/Info                            : Picture based subtitle format used on BDs/HD-DVDs
Duration                                 : 1 h 25 min
Bit rate                                 : 5 015 b/s
Count of elements                        : 1484
Stream size                              : 3.05 MiB (0%)
Language                                 : English
Default                                  : No
Forced                                   : No
Скріншоти





Синхронізація української доріжки JACKUS,
запис звуку з ТБ 4erkov,
українізація постера bilenkuyboy


Джерело: &
Особиста оцінка: 8 - мені сподобалося
Райське озеро / Eden Lake (2008) Remux 1080p Ukr/Eng | Sub Eng


Золотий реліз (завантажене не впливає на рейтинг)
 Трекер:    Зареєстрований   

Завантажити / скачати фільм українською



відео для новачків



 Зареєстрований:   2017-02-17 13:26
 Розмір:   14.3 GB 
 Оцінка фільму:   10/10 (Голосів: 4)
   
Інші релізи
   Райське озеро / Eden Lake (2008) 720p Ukr/Eng | sub Eng pykaaaa  0 / 2   4.64 GB   2012-04-29 21:52 
   Райське озеро / Eden Lake (2008) Ukr/Eng | sub Eng JACKUS  7 / 0   1.74 GB   2011-03-21 00:40 
bot 
робот


З нами з: 30.09.07
Востаннє: 26.05.05
Повідомлень: 16513

2017-02-17 13:26  
Тему перенесено з Анонси релізів до форуму Фільми в HD


staf777

Ваш часовий пояс: GMT + 2 Години

Нова тема   Відповісти