Робінзон Крузо: Дуже заселений острів (The Wild Life) / Robinson Crusoe (2016) AVC 2xUkr | Sub Eng/Ger

Нові коментарі

Нова тема   Відповісти
Автор Повідомлення
Anonymous 







2017-02-16 21:30  
Робінзон Крузо: Дуже заселений острів / The Wild Life / Robinson Crusoe (2016) AVC 2xUkr | Sub Eng/Ger



Альтернативні та оригінальні постери і обкладинки



Робінзон Крузо: Дуже заселений острів (The Wild Life) / Robinson Crusoe (2016) AVC 2xUkr | Sub Eng/Ger








повнорозмірні зображення відкриються по кліку (з натиснутим CTRL чи кліком середньою кнопкою мишки - у новій вкладці)

Жанр: анімація, пригодницький, комедія
Країна: Франція, Бельгія



Кінокомпанія: StudioCanal, nWave Pictures, uFilm
Режисер: Бен Стассен / Ben Stassen, Вінсент Кестелут / Vincent Kesteloot
Актори: Рон Аллен / Ron Allen, Джордж Беббіт / George Babbit, Лайла Берзіньш / Laila Berzins, Ілька Бессін / Ilka Bessin, Джої Камен / Joey Camen, Джефф Дусетте / Jeff Doucette, Сенді Фокс / Sandy Fox, Дітер Галлерворден / Dieter Hallervorden, Кайл Герберт / Kyle Herbert

Сюжет:
Всі знають історію про Робінзона Крузо, який волею долі потрапив на безлюдний острів. Але далеко не всі знають, що там він не зустрів П'ятницю, а папугу на ім'я Вівторок і його вірних друзів – звірів-остров'ян. Разом з новими знайомими Крузо буде облаштовувати нове життя на острові, протистояти негараздам і чекати на прибуття рятувального корабля. Попереду у Робінзона і Вівторка неймовірно веселі пригоди!

Трейлер та бонус

офіційний український трейлер

Як Сергій Притула озвучував цей мульт


Рейтинг MPAA: PG - рекомендується присутність батьків
Вікова категорія: 6+

Тривалість: 01:30:27
Якість: AVC
Відео:
кодек:
розмір кадру: 960 х 402
бітрейт: 1863 Кбіт/с

Аудіо # 1:
мова: українська
переклад: багатоголосий закадровий
кодек: 2.0 (стерео)
бітрейт: 192 Кбіт/с

Аудіо #2:
мова: українська
переклад: професійний дубльований | ААА-sound
кодек: 2.0 (стерео)
бітрейт: 192 Кбіт/с
примітка: доріжка імовірно була неправильно зміксована працівниками Мегого (з 5.1 в 2.0, голоси набагато тихіші інших звуків та музики), тому в контейнері вона друга
Інформація про дубляж
Ролі дублювали: Сергій Притула, Анатолій Зіновенко, Катерина Брайковська, Андрій Альохін, Катерина Буцька, Ярослав Чорненький, Юлія Перенчук, Юрій Ребрик, Андрій Федінчик, Павло Скороходько, Дмитро Завадський, Олександр Єфімов та інші.

Фільм дубльовано на студії ААА-sound у 2016 році на замовлення компанії "Вольга-Україна"
Субтитри # 1:
мова: англійська (повні+пісні)
тип: програмні (м'які)
формат: *.srt

Субтитри # 2:
мова: німецька (SDH)
тип: програмні (м'які)
формат: *.srt

Збережено оригінальні розділи, як на Blu-ray
Info
Код:
Format                      :
Format version              : Version 4 / Version 2
File size                   : 1.42 GiB
Duration                    : 1 h 30 min
Overall bit rate            : 2 249 kb/s

Video
ID                          : 1
Format                      : AVC
Format/Info                 : Advanced Video Codec
Format profile              : [email protected]
Format settings, CABAC      : Yes
Format settings, ReFrames   : 11 frames
Codec ID                    : V_MPEG4/ISO/AVC
Duration                    : 1 h 30 min
Bit rate                    : 1 863 kb/s
Width                       : 960 pixels
Height                      : 402 pixels
Display aspect ratio        : 2.40:1
Frame rate mode             : Constant
Frame rate                  : 23.976 (24000/1001) FPS
Color space                 : YUV
Chroma subsampling          : 4:2:0
Bit depth                   : 8 bits
Scan type                   : Progressive
Bits/(Pixel*Frame)          : 0.201
Stream size                 : 1.18 GiB (83%)
Title                       : Робінзон Крузо: Дуже заселений острів / Robinson Crusoe (2016) AVC [HELLYWOOD-potroks]
Writing library             : core 148 r2694M 3b70645
Encoding settings           : cabac=1 / ref=11 / deblock=1:-1:-1 / analyse=0x3:0x133 / me=umh / subme=11 / psy=1 / psy_rd=1.10:0.15 / mixed_ref=1 / me_range=32 / chroma_me=1 / trellis=2 / 8x8dct=1 / cqm=0 / deadzone=21,11 / fast_pskip=0 / chroma_qp_offset=-3 / threads=9 / lookahead_threads=2 / sliced_threads=0 / nr=0 / decimate=0 / interlaced=0 / bluray_compat=0 / constrained_intra=0 / bframes=12 / b_pyramid=2 / b_adapt=2 / b_bias=0 / direct=3 / weightb=1 / open_gop=0 / weightp=2 / keyint=240 / keyint_min=23 / scenecut=40 / intra_refresh=0 / rc_lookahead=100 / rc=2pass / mbtree=0 / bitrate=1863 / ratetol=1.0 / qcomp=0.70 / qpmin=0 / qpmax=69 / qpstep=4 / cplxblur=20.0 / qblur=0.5 / vbv_maxrate=50000 / vbv_bufsize=60000 / nal_hrd=none / filler=0 / ip_ratio=1.40 / pb_ratio=1.30 / aq=1:0.80
Language                    : French
Default                     : Yes
Forced                      : No

Audio #1
ID                          : 2
Format                      : AC-3
Format/Info                 : Audio Coding 3
Mode extension              : CM (complete main)
Format settings, Endianness : Big
Codec ID                    : A_AC3
Duration                    : 1 h 30 min
Bit rate mode               : Constant
Bit rate                    : 192 kb/s
Channel(s)                  : 2 channels
Channel positions           : Front: L R
Sampling rate               : 48.0 kHz
Frame rate                  : 31.250 FPS (1536 spf)
Bit depth                   : 16 bits
Compression mode            : Lossy
Stream size                 : 124 MiB (9%)
Title                       : MVO [VolyaCine+Kids] 2.0 [stereo] 192 kbps [Hurtom-Gelios,slavik_v_z]
Language                    : Ukrainian
Default                     : Yes
Forced                      : Yes

Audio #2
ID                          : 3
Format                      : AC-3
Format/Info                 : Audio Coding 3
Mode extension              : CM (complete main)
Format settings, Endianness : Big
Codec ID                    : A_AC3
Duration                    : 1 h 30 min
Bit rate mode               : Constant
Bit rate                    : 192 kb/s
Channel(s)                  : 2 channels
Channel positions           : Front: L R
Sampling rate               : 48.0 kHz
Frame rate                  : 31.250 FPS (1536 spf)
Bit depth                   : 16 bits
Compression mode            : Lossy
Stream size                 : 124 MiB (9%)
Title                       : Dub [AAA-sound,Megogo] 2.0 192 kbps [Hurtom]
Language                    : Ukrainian
Default                     : No
Forced                      : No

Text #1
ID                          : 4
Format                      : UTF-8
Codec ID                    : S_TEXT/UTF8
Codec ID/Info               : UTF-8 Plain Text
Duration                    : 1 h 27 min
Bit rate                    : 58 b/s
Count of elements           : 1276
Stream size                 : 37.3 KiB (0%)
Title                       : Eng full+songs
Language                    : English
Default                     : No
Forced                      : No

Text #2
ID                          : 5
Format                      : UTF-8
Codec ID                    : S_TEXT/UTF8
Codec ID/Info               : UTF-8 Plain Text
Duration                    : 1 h 24 min
Bit rate                    : 71 b/s
Count of elements           : 1214
Stream size                 : 44.4 KiB (0%)
Title                       : Ger SDH
Language                    : German
Default                     : No
Forced                      : No

Menu
00:00:00.000                : :(01)00:00:00:000
00:11:40.323                : :(02)00:11:40:323
00:24:47.067                : :(03)00:24:47:067
00:35:02.266                : :(04)00:35:02:266
00:44:30.208                : :(05)00:44:30:208
00:54:34.271                : :(06)00:54:34:271
01:04:27.280                : :(07)01:04:27:280
01:15:12.631                : :(08)01:15:12:631
01:25:14.649                : :(09)01:25:14:649


Джерело: &
Подяка slavik_v_z і Gelios'у за Аудіо №1 та AngryBirdsUA за Аудіо №2


 Трекер:    Зареєстрований   

Завантажити / скачати мультфільм українською



відео для новачків



 Зареєстрований:   2017-02-16 21:48
 Розмір:   1.42 GB 
 Оцінка мультфільму:   7/10 (Голосів: 44)
   
Despati 
Поважний учасник


З нами з: 10.07.12
Востаннє: 12.08.17
Повідомлень: 160

2017-05-27 12:40  
Мульт сподобався, спасибі. Красивий та милий, проте не засинальний, - є й драма і протистояння, персонажі цікаві, виживательська частина навіть непогано пропрацьована. Є й алегоричний повчальний елемент щодо впливу людини на природні екосистеми.
Olinda 
Новенький


З нами з: 15.05.15
Востаннє: 31.05.17
Повідомлень: 2

2017-05-31 20:31  
А оригінальної доріжки немає?
Anonymous 







2017-05-31 21:58  
Olinda написано:
А оригінальної доріжки немає?
тут немає, є в інших релізах, див. спойлер "Інші релізи"
Ваш часовий пояс: GMT + 2 Години

Нова тема   Відповісти