Жук-стрибунець / Doodlebug (1997) Remux 1080p німе | Sub Ukr

Нові коментарі

Нова тема   Відповісти
Автор Повідомлення
Anonymous 







2017-02-16 20:56  
Жук-стрибунець / Doodlebug (1997) Remux 1080p німе | Sub Ukr

Жук-стрибунець / Doodlebug (1997) Remux 1080p німе | Sub Ukr


Жанр: Психологічний трилер, містика
Країна: Велика Британія

Режисер: Крістофер Нолан / Christopher Nolan
Актори: Джеремі Теобальд

Сюжет:
На перший погляд здається, що чоловік намагається вбити комаху, але згодом виявляється, що усе не так просто, як здається.


Тривалість: 00:02:56
Якість: Remux
Відео:
кодек:
розмір кадру: 1980 х 1090
бітрейт: 34 мб/с

Аудіо:
мова: відсутня
переклад: оригінал
кодек: 2.0
бітрейт: 192 кб/с

Субтитри:
мова: українська
тип: програмні (м'які)
формат: *.ass
переклад: власний
Info
General
Unique ID : 211413758544966710164209081130377605431 (0x9F0CCF0F124373C0931A0312DB34F137)
Complete name : D:\Doodlebug Remux [Sub Ukr].
Format :
Format version : Version 4 / Version 2
File size : 735 MiB
Duration : 2mn 56s
Overall bit rate mode : Variable
Overall bit rate : 34.9 Mbps
Movie name : Doodlebug 1997 1080i Blu-ray Remux AVC DD 2.0 - KRaLiMaRKo
Encoded date : UTC 2017-02-16 17:29:11
Writing application : mkvmerge v9.3.1 ('Mask Machine') 64bit
Writing library : libebml v1.3.4 + libmatroska v1.4.5
DURATION : 00:02:52.140000000
NUMBER_OF_FRAMES : 2
NUMBER_OF_BYTES : 270
_STATISTICS_WRITING_APP : mkvmerge v9.3.1 ('Mask Machine') 64bit
_STATISTICS_WRITING_DATE_UTC : 2017-02-16 17:29:11
_STATISTICS_TAGS : BPS DURATION NUMBER_OF_FRAMES NUMBER_OF_BYTES

Video
ID : 1
Format : AVC
Format/Info : Advanced Video Codec
Format profile : [email protected]
Format settings, CABAC : Yes
Format settings, ReFrames : 4 frames
Format settings, GOP : M=3, N=24
Codec ID : V_MPEG4/ISO/AVC
Duration : 2mn 56s
Bit rate mode : Variable
Bit rate : 34.0 Mbps
Maximum bit rate : 37.0 Mbps
Width : 1 920 pixels
Height : 1 080 pixels
Display aspect ratio : 16:9
Frame rate mode : Constant
Frame rate : 29.970 fps
Color space : YUV
Chroma subsampling : 4:2:0
Bit depth : 8 bits
Scan type : MBAFF
Scan order : Top Field First
Bits/(Pixel*Frame) : 0.547
Stream size : 716 MiB (97%)
Language : English
Default : Yes
Forced : No

Audio
ID : 2
Format : AC-3
Format/Info : Audio Coding 3
Mode extension : CM (complete main)
Format settings, Endianness : Big
Codec ID : A_AC3
Duration : 2mn 56s
Bit rate mode : Constant
Bit rate : 192 Kbps
Channel(s) : 2 channels
Channel positions : Front: L R
Sampling rate : 48.0 KHz
Compression mode : Lossy
Stream size : 4.05 MiB (1%)
Language : Multiple languages
Default : Yes
Forced : No

Text
ID : 3
Format : ASS
Codec ID : S_TEXT/ASS
Codec ID/Info : Advanced Sub Station Alpha
Compression mode : Lossless
Language : Ukrainian
Default : Yes
Forced : No
Скріншоти







Джерело: Власний переклад &
Особиста оцінка: 10 - від короткометражки, хоч і Ноланової такого не очікував. Раджу витратити 3 хвилини свого життя на це.


Золотий реліз (завантажене не впливає на рейтинг)
 Трекер:    Зареєстрований   

Завантажити / скачати фільм українською



відео для новачків



 Зареєстрований:   2017-02-16 21:06
 Розмір:   735 MB 
 Оцінка фільму:   4.1/10 (Голосів: 16)
   
Anonymous 







2017-02-16 21:04  
Тут лише 2 рядки субтитрів (вступна назва і титри, які я переклав не повністю, лишивши лише (на мою думку) найголовніше, на оcтанньому знятку їх видно).
patriots 
Свій


З нами з: 26.02.08
Востаннє: 18.10.17
Повідомлень: 101

2017-02-17 20:07  
як на мене нічого класного не побачив.
11FrYkT 
Модератор відео


З нами з: 20.02.11
Востаннє: 18.10.17
Повідомлень: 3962

2017-02-17 20:50  
Anonymous , додайте медіаінфо
Anonymous 







2017-02-18 01:14  
11FrYkT
Додав

hetzendorf 
Відео Гуртом - підтримка та поширення
Відео Гуртом - підтримка та поширення


З нами з: 23.07.15
Востаннє: 18.10.17
Повідомлень: 489

2017-02-26 01:40  
imdb
hetzendorf 
Відео Гуртом - підтримка та поширення
Відео Гуртом - підтримка та поширення


З нами з: 23.07.15
Востаннє: 18.10.17
Повідомлень: 489

2017-02-26 19:38  
patriots написано:
як на мене нічого класного не побачив

Коротко, ясно й зрозуміло, все по суті, нічого зайвого.
9/10

Ваш часовий пояс: GMT + 2 Години

Нова тема   Відповісти