Око / The Eye (2008) 720p Ukr/Eng | Sub Eng

Нові коментарі

Нова тема   Відповісти
Автор Повідомлення
staf777 
Відео Гуртом - підтримка та поширення
Відео Гуртом - підтримка та поширення


З нами з: 16.11.16
Востаннє: 16.03.17
Повідомлень: 523

2017-02-16 20:12  
Око / The Eye (2008) 720p Ukr/Eng | Sub Eng

Око / The Eye (2008) 720p Ukr/Eng | Sub Eng
Оригінальна обкладинка

Око / The Eye (2008) 720p Ukr/Eng | Sub Eng
Жанр: триллер, драма, жахи
Країна: США

Кінокомпанія: Lionsgate
Режисер: Хідео Наката, Ксав'єр Палю
Актори: Джесіка Альба, Александро Нівола, Паркер Поузі, Раде Шербеджия, Фернанда Ромеро, Оба Бабатунде, Дені Мора, Хлоя Морец, Брет Хаворт.

Сюжет:
Еллісон осліпла ще в дитинстві. Довгі роки в абсолютній темряві вона терпляче чекала тієї миті, коли за допомогою сучасної медицини знов зможе бачити. І ось, через двадцять років, настав довгоочікуваний момент - їй приживляють донорську рогівку.
Проте незабаром пересадженим їй донорським оком вона починає бачити в дзеркалі невиразні образи. У пошуках відповідей Еллісон намагається з'ясувати, що трапилося з попереднім власником ока.


Тривалість: 01:36:33
Якість: 720p
Відео:
кодек:
розмір кадру: 1280x544
бітрейт: 6289 кб/с

Аудіо # 1:
мова: українська
переклад: багатоголосий закадровий
кодек: 2.0
бітрейт: 192 кб/с

Аудіо # 2:
мова: англійська
переклад: оригінал
кодек: 5.1
бітрейт: 1509 кб/с

Субтитри:
мова: англійська
тип: програмні (м'які)
формат: *.srt
Скріншоти




MI
General
Unique ID : 213182594080315518898553259328098042855 (0xA06179624C06D7A7B7546961377C83E7)
Complete name : H:\» HD українською » Фільми в HD\Жахи\The Eye (2008) [Ukr,Eng sub.Eng] 720p [Hurtom].
Format :
Format version : Version 4 / Version 2
File size : 5.39 GiB
Duration : 1 h 36 min
Overall bit rate : 7 992 kb/s
Movie name : The Eye (2008) [Ukr,Eng sub.Eng] 720p [Hurtom]
Encoded date : UTC 2017-02-16 16:41:41
Writing application : mkvmerge v9.8.0 ('Kuglblids') 64bit
Writing library : libebml v1.3.4 + libmatroska v1.4.5
Cover : Yes
Attachments : cover.jpg / xlog.txt

Video
ID : 1
Format : AVC
Format/Info : Advanced Video Codec
Format profile : [email protected]
Format settings, CABAC : Yes
Format settings, ReFrames : 12 frames
Codec ID : V_MPEG4/ISO/AVC
Duration : 1 h 36 min
Bit rate : 6 289 kb/s
Width : 1 280 pixels
Height : 544 pixels
Display aspect ratio : 2.35:1
Frame rate mode : Constant
Frame rate : 23.976 (24000/1001) FPS
Color space : YUV
Chroma subsampling : 4:2:0
Bit depth : 8 bits
Scan type : Progressive
Bits/(Pixel*Frame) : 0.377
Stream size : 4.24 GiB (79%)
Title : Release for HDCLUB
Writing library : core 144 r2525kMod 40bb568
Encoding settings : cabac=1 / ref=12 / deblock=1:-3:-3 / analyse=0x3:0x133 / me=umh / subme=11 / psy=1 / fade_compensate=0.00 / psy_rd=1.00:0.00 / mixed_ref=1 / me_range=32 / chroma_me=1 / trellis=2 / 8x8dct=1 / cqm=0 / deadzone=21,11 / fast_pskip=1 / chroma_qp_offset=-2 / threads=12 / lookahead_threads=2 / sliced_threads=0 / nr=0 / decimate=1 / interlaced=0 / bluray_compat=0 / constrained_intra=0 / fgo=0 / bframes=7 / b_pyramid=2 / b_adapt=2 / b_bias=0 / direct=1 / weightb=1 / open_gop=0 / weightp=2 / keyint=250 / keyint_min=23 / scenecut=40 / intra_refresh=0 / rc_lookahead=60 / rc=crf / mbtree=0 / crf=16.5000 / qcomp=0.70 / qpmin=0 / qpmax=69 / qpstep=4 / vbv_maxrate=62500 / vbv_bufsize=78125 / crf_max=0.0 / nal_hrd=none / filler=0 / ip_ratio=1.40 / pb_ratio=1.30 / aq=1:0.80
Language : English
Default : Yes
Forced : No
Color range : Limited
Color primaries : BT.709
Transfer characteristics : BT.709
Matrix coefficients : BT.709

Audio #1
ID : 2
Format : AC-3
Format/Info : Audio Coding 3
Mode extension : CM (complete main)
Format settings, Endianness : Big
Codec ID : A_AC3
Duration : 1 h 36 min
Bit rate mode : Constant
Bit rate : 192 kb/s
Channel(s) : 2 channels
Channel positions : Front: L R
Sampling rate : 48.0 kHz
Frame rate : 31.250 FPS (1536 spf)
Bit depth : 16 bits
Compression mode : Lossy
Stream size : 133 MiB (2%)
Title : UA-DVO
Language : Ukrainian
Default : Yes
Forced : Yes

Audio #2
ID : 3
Format :
Format/Info : Digital Theater Systems
Mode : 16
Format settings, Endianness : Big
Codec ID : A_DTS
Duration : 1 h 36 min
Bit rate mode : Constant
Bit rate : 1 509 kb/s
Channel(s) : 6 channels
Channel positions : Front: L C R, Side: L R, LFE
Sampling rate : 48.0 kHz
Frame rate : 93.750 FPS (512 spf)
Bit depth : 24 bits
Compression mode : Lossy
Stream size : 1.02 GiB (19%)
Language : English
Default : No
Forced : No

Text
ID : 4
Format : UTF-8
Codec ID : S_TEXT/UTF8
Codec ID/Info : UTF-8 Plain Text
Duration : 1 h 28 min
Bit rate : 34 b/s
Count of elements : 788
Stream size : 22.0 KiB (0%)
Language : English
Default : No
Forced : No

Menu
00:00:00.000 : en:Seeing the World
00:06:42.235 : en:Finding Focus
00:11:44.286 : en:Night Sights
00:15:33.223 : en:On My Own
00:19:35.507 : en:Good to See You
00:23:25.278 : en:Whole New Level
00:29:02.031 : en:Like the Rest of Us
00:35:46.769 : en:Through Me
00:40:07.071 : en:Everything's Wrong
00:46:23.489 : en:Hiding Out
00:51:10.609 : en:Don't Go
00:57:12.804 : en:Cellular Memory
01:04:15.560 : en:A Connection
01:10:55.292 : en:Blame Her
01:16:50.564 : en:Save Them
01:22:24.814 : en:Don't You See?
01:27:31.246 : en:Seeing Is Believing
01:29:45.505 : en:End Credits
Джерело: &
Особиста оцінка: 0 - не дивився


 Трекер:    Зареєстрований   

Завантажити / скачати фільм українською



відео для новачків



 Зареєстрований:   2017-02-16 20:12
 Розмір:   5.39 GB 
 Оцінка фільму:   9.3/10 (Голосів: 3)
   
Інші релізи
   Око / The Eye (2008) 1080p Ukr/Eng | Sub Eng famous37  1 / 0   7.76 GB   2016-02-14 19:50 
   Око / The eye (2008) Breniak  7 / 0   1.33 GB   2011-01-28 15:56 
taksist 
Свій


З нами з: 10.12.12
Востаннє: 27.05.17
Повідомлень: 122

2017-02-16 22:30  
смутні=невиразні
tarasdem 
Частий відвідувач


З нами з: 21.04.10
Востаннє: 22.05.17
Повідомлень: 34

2017-02-17 19:20  
Дуже люблю цей фільм, ще раз завантажу собі. Дякую
Ваш часовий пояс: GMT + 2 Години

Нова тема   Відповісти