Круті віражі / Cool Runnings (1993) 1080p Ukr/Eng | Sub Eng

Нові коментарі

Нова тема   Відповісти
Автор Повідомлення
staf777 
Відео Гуртом - підтримка та поширення
Відео Гуртом - підтримка та поширення


З нами з: 16.11.16
Востаннє: 06.11.17
Повідомлень: 522

2017-02-16 16:57  
Круті віражі / Cool Runnings (1993) 1080p Ukr/Eng | Sub Eng

Круті віражі / Cool Runnings (1993) 1080p Ukr/Eng | Sub Eng


Жанр: комедія, сімейний, спорт
Країна: США



Кінокомпанія: Walt Disney Pictures
Режисер: Джон Тертлтоуб
Актори: Джон Кенді, Леон, Даг І. Даг, Роулі Д. Люїс, Мелік Йоба, Реймонд Джей Беррі та інші

Сюжет:
Четверо спортсменів з сонячної Ямайки мріють про участь у Олімпіаді. І їм не важливо в якому виді спорту виступати. А чому б і не бобслей!? Чого тільки не зробиш на шляху до заповітної мрії. Нехай навіть цей шлях крижаний, а мчати доводиться в незрозумілому снаряді.


Тривалість: 01:38:10
Якість: 1080p
Відео:
кодек:
розмір кадру: 1920x1040
бітрейт: 11708 кб/с

Аудіо # 1:
мова: українська
переклад: двоголосий закадровий
кодек: 2.0
бітрейт: 192 кб/с
примітка: чоловічі ролі озвучив Андрій Твердак

Аудіо # 2:
мова: англійська
переклад: оригінал
кодек: 2.0
бітрейт: 224 кб/с

Субтитри #1-2:
мова: англійська (повні, SDH)
тип: програмні (м'які)
формат: *.srt
Скріншоти



MI
General
Unique ID : 202742257706815692463842130691191951498 (0x9886BD0F0EF399B684204D72044F508A)
Complete name : E:\HDCLUB\Cool Runnings (1993) [Ukr,Eng sub.Eng] 1080p [Hurtom].
Format :
Format version : Version 4 / Version 2
File size : 8.32 GiB
Duration : 1 h 38 min
Overall bit rate mode : Variable
Overall bit rate : 12.1 Mb/s
Movie name : Cool Runnings (1993) [Ukr,Eng sub.Eng] 1080p [Hurtom]
Encoded date : UTC 2017-02-16 14:36:58
Writing application : mkvmerge v9.8.0 ('Kuglblids') 64bit
Writing library : libebml v1.3.4 + libmatroska v1.4.5
Cover : Yes
Attachments : cover.jpg

Video
ID : 1
Format : AVC
Format/Info : Advanced Video Codec
Format profile : [email protected]
Format settings, CABAC : Yes
Format settings, ReFrames : 4 frames
Codec ID : V_MPEG4/ISO/AVC
Duration : 1 h 38 min
Bit rate mode : Variable
Bit rate : 11.7 Mb/s
Maximum bit rate : 15.0 Mb/s
Width : 1 920 pixels
Height : 1 040 pixels
Display aspect ratio : 1.85:1
Original display aspect ratio : 1.85:1
Frame rate mode : Constant
Frame rate : 23.976 (24000/1001) FPS
Color space : YUV
Chroma subsampling : 4:2:0
Bit depth : 8 bits
Scan type : Progressive
Bits/(Pixel*Frame) : 0.245
Stream size : 8.03 GiB (97%)
Title : Cool Runnings (1993) - Release for HDCLUB
Writing library : core 148 r2623 d5b2374
Encoding settings : cabac=1 / ref=4 / deblock=1:-1:-1 / analyse=0x3:0x133 / me=umh / subme=9 / psy=1 / psy_rd=1.00:0.15 / mixed_ref=1 / me_range=24 / chroma_me=1 / trellis=2 / 8x8dct=1 / cqm=0 / deadzone=21,11 / fast_pskip=1 / chroma_qp_offset=-3 / threads=32 / lookahead_threads=5 / sliced_threads=0 / nr=150 / decimate=1 / interlaced=0 / bluray_compat=0 / constrained_intra=0 / bframes=8 / b_pyramid=2 / b_adapt=2 / b_bias=0 / direct=3 / weightb=1 / open_gop=0 / weightp=2 / keyint=120 / keyint_min=61 / scenecut=0 / intra_refresh=0 / rc_lookahead=120 / rc=crf / mbtree=1 / crf=18.0 / qcomp=0.60 / qpmin=0 / qpmax=69 / qpstep=4 / vbv_maxrate=15000 / vbv_bufsize=31250 / crf_max=0.0 / nal_hrd=vbr / filler=0 / ip_ratio=1.40 / aq=3:1.00
Language : English
Default : Yes
Forced : No
Color range : Limited
Color primaries : BT.709
Transfer characteristics : BT.709
Matrix coefficients : BT.709

Audio #1
ID : 2
Format : AC-3
Format/Info : Audio Coding 3
Mode extension : CM (complete main)
Format settings, Endianness : Big
Codec ID : A_AC3
Duration : 1 h 38 min
Bit rate mode : Constant
Bit rate : 192 kb/s
Channel(s) : 2 channels
Channel positions : Front: L R
Sampling rate : 48.0 kHz
Frame rate : 31.250 FPS (1536 spf)
Bit depth : 16 bits
Compression mode : Lossy
Stream size : 135 MiB (2%)
Title : UA-MVO, 1+1
Language : Ukrainian
Default : Yes
Forced : Yes

Audio #2
ID : 3
Format : E-AC-3
Format/Info : Enhanced Audio Coding 3
Format settings, Endianness : Big
Codec ID : A_EAC3
Duration : 1 h 38 min
Bit rate mode : Constant
Bit rate : 224 kb/s
Channel(s) : 2 channels
Channel positions : Front: L R
Sampling rate : 48.0 kHz
Frame rate : 187.500 FPS (256 spf)
Compression mode : Lossy
Stream size : 157 MiB (2%)
Title : English
Language : English
Default : No
Forced : No

Text #1
ID : 4
Format : UTF-8
Codec ID : S_TEXT/UTF8
Codec ID/Info : UTF-8 Plain Text
Duration : 1 h 37 min
Bit rate : 72 b/s
Count of elements : 1267
Stream size : 51.8 KiB (0%)
Title : English
Language : English
Default : No
Forced : No

Text #2
ID : 5
Format : UTF-8
Codec ID : S_TEXT/UTF8
Codec ID/Info : UTF-8 Plain Text
Duration : 1 h 37 min
Bit rate : 75 b/s
Count of elements : 1331
Stream size : 54.3 KiB (0%)
Title : English (SDH)
Language : English
Default : No
Forced : No

Menu
00:00:00.000 : :Program Start
00:00:15.349 : :Opening Credits
00:04:56.097 : :Sanka's Pushcart Derby
00:07:44.933 : :100 Meter Finals
00:14:40.883 : :Convincing Irving Blitzer
00:18:29.111 : :First Jamaican Bobsled Team
00:26:23.885 : :Training Begins
00:30:27.161 : :Send Us to the Olympics!
00:40:30.565 : :Running on Ice
00:45:06.841 : :First Run
00:53:41.055 : :Irv's Past Revealed
00:56:56.218 : :Pride and Power.
01:06:28.224 : :Qualifying Run
01:09:58.567 : :Irv Faces the Alliance
01:14:57.365 : :Junior Takes a Stand
01:19:31.974 : :A Dismal Start
01:23:07.689 : :Bobsled Jamaican Style
01:25:23.825 : :Irv Explains Himself
01:28:07.323 : :Jamaican Heroes
01:34:55.899 : :End Credits
Подяка за сирий звук пані olgaya, за зведення п.JACKUS
Джерело: &
Особиста оцінка: 10 - без зайвих вагань рекомендую всім!


Срібний реліз (на рейтинг впливає 50% завантаженого)
 Трекер:    Зареєстрований   

Завантажити / скачати фільм українською



відео для новачків



 Зареєстрований:   2017-02-16 16:57
 Розмір:   8.32 GB 
 Оцінка фільму:   10/10 (Голосів: 14)
   
Інші релізи
   Круті віражі / Cool Runnings (1993) [MP4, 640x] apvAltisimo  2 / 0   655 MB   2016-01-10 13:53 
   Круті віражі / Cool Runnings (1993) Ukr/Eng | sub Eng JACKUS  5 / 0   1.58 GB   2010-09-11 19:30 
snegurrrka 
Новенький


З нами з: 02.11.14
Востаннє: 19.11.17
Повідомлень: 8

2017-02-16 19:42  
Дякую за реліз! Ми нещодавно згадали і переглянули цей фільм, хоча і знайшли лише ріп розміром 1.47 ГБ, а тут якість значно краща. Фільму без вагань 10\10 за той позитивний настрій, що він дарує.
Pegass 
VIP


З нами з: 17.12.09
Востаннє: 14.12.17
Повідомлень: 642

2017-04-10 12:50  
є вже BluRay. прохання оновити.
Форкуш 
VIP


З нами з: 03.02.10
Востаннє: 16.12.17
Повідомлень: 1944

2017-05-13 14:09  
Чи може хтось чув, за документальний фільм 2016 року, про збірну Ямайки з бобслею?
Ваш часовий пояс: GMT + 2 Години

Нова тема   Відповісти