Підлітки-мутанти. Черепашки-ніндзя 2 / Teenage Mutant Ninja Turtles: Out of the Shadows (2016) 720p-mini (60 fps)

Нові коментарі

Нова тема   Відповісти
Автор Повідомлення
Drool 
VIP


З нами з: 17.04.10
Востаннє: 17.10.17
Повідомлень: 1402

2017-02-16 17:19  
Підлітки-мутанти. Черепашки-ніндзя 2 / Teenage Mutant Ninja Turtles: Out of the Shadows (2016) 720p-mini (60 fps)

Підлітки-мутанти. Черепашки-ніндзя 2 / Teenage Mutant Ninja Turtles: Out of the Shadows (2016) 720p-mini (60 fps)

Офіційний трейлер


Жанр: бойовик, пригодницький, комедія, фантастика
Країна: США


Діти до 13 років допускаються на фільм тільки з батьками
Настійне застереження батькам. Деякий матеріал може бути невідповідним для дітей до 13 років. Цей рейтинг показує, що оцінений фільм може бути невідповідним для дітей. Батьки повинні бути особливо обережні, дозволяючи своїм маленьким дітям перегляд. Грубе або тривале насильство відсутнє; сексуальна орієнтація на наготу відсутня; деякі сцени вживання наркотиків можуть бути присутніми; можна почути одиничні вживання грубої сексуальної лексики. Присутня епізодична оголеність (не враховуючи репродуктивні органи). Присутні сексуальні натяки і натяки на гомосексуалізм чи сексуальні збочення.
Кінокомпанія: Gama Entertainment Partners, Nickelodeon Movies, Paramount Pictures, Platinum Dunes
Режисер: Дейв Грін
Актори: Меган Фокс, Стівен Амелл, Алан Річсон, Уілл Арнетт, Ноель Фішер, Стефен Фарреллі

Сюжет:
Довгий час черепашки-ніндзя ховалися від людей в лабіринтах міської каналізації. Протягом декількох років вчитель Сплінтер навчав їх бойовим мистецтвам і прививав їм почуття справедливості. В один прекрасний момент їм довелося піднятися наверх, щоб врятувати Нью-Йорк від Шредера, ватажка Клану Футів, що захопив владу в Нью-Йорку. Разом з відважним репортером Ейпріл і її оператором Верном, безстрашні воїни змогли здобути перемогу і очистити рідне місто від злочинності. Леонардо, Мікеланджело, Рафаель і Донателло знайшли своє призначення в цьому світі і стали захисниками свого міста. Вони навели порядок у Нью-Йорку і з чистою совістю могли відправитися на спокій, але одного разу їм знову довелося зіткнутися з могутнім ворогом, що загрожує їх місту...


Тривалість: 01:52:07
Якість: 720p-mini
Відео:
кодек:
розмір кадру: 1280x534
бітрейт: 6368 кб/с
crf: 17.3
кадрів на секунду: 59.940 к/с

Аудіо:
мова: українська
переклад: професійний дубльований
кодек: 5.1
бітрейт: 448 кб/с
Подяка пану Hanway за синхронізацію та пану AngryBirdsUA за доріжку.

Субтитри:
мова: українська
тип: програмні (м'які, форсовані)
формат: *.srt
Info
Код:
General
Unique ID                                : 283950142366233804097970950559241246780 (0xD59ECEE583BCB176EF50FEFBFE6E983C)
Complete name                            : /mnt/disk_d/Video/Teenage.Mutant.Ninja.Turtles.Out.of.the.Shadows.2016.Ukr.Dub-DVD..720p-mini.60fps.
Format                                   :
Format version                           : Version 4 / Version 2
File size                                : 5.45 GiB
Duration                                 : 1h 52mn
Overall bit rate                         : 6 954 Kbps
Movie name                               : Підлітки-мутанти. Черепашки-ніндзя 2 / Teenage Mutant Ninja Turtles: Out of the Shadows (2016) 720p-mini (60 fps) | by NNNB
Encoded date                             : UTC 2017-02-21 07:15:25
Writing application                      : mkvmerge v9.7.1 ('Pandemonium') 64bit
Writing library                          : libebml v1.3.4 + libmatroska v1.4.5
Attachements                             : cover.jpg
DURATION                                 : 01:52:07.584000000
NUMBER_OF_FRAMES                         : 210237
NUMBER_OF_BYTES                          : 376744704
_STATISTICS_WRITING_APP                  : mkvmerge v9.7.1 ('Pandemonium') 64bit
_STATISTICS_WRITING_DATE_UTC             : 2017-02-21 07:15:25
_STATISTICS_TAGS                         : BPS DURATION NUMBER_OF_FRAMES NUMBER_OF_BYTES

Video
ID                                       : 1
Format                                   : AVC
Format/Info                              : Advanced Video Codec
Format profile                           : [email protected]
Format settings, CABAC                   : Yes
Format settings, ReFrames                : 9 frames
Codec ID                                 : V_MPEG4/ISO/AVC
Duration                                 : 1h 52mn
Bit rate                                 : 6 368 Kbps
Width                                    : 1 280 pixels
Height                                   : 534 pixels
Display aspect ratio                     : 2.40:1
Frame rate mode                          : Constant
Frame rate                               : 59.880 fps
Original frame rate                      : 59.940 fps
Color space                              : YUV
Chroma subsampling                       : 4:2:0
Bit depth                                : 8 bits
Scan type                                : Progressive
Bits/(Pixel*Frame)                       : 0.156
Stream size                              : 4.99 GiB (92%)
Title                                    : Підлітки-мутанти. Черепашки-ніндзя 2 / Teenage Mutant Ninja Turtles: Out of the Shadows (2016) 720p-mini (60 fps) | by NNNB
Writing library                          : core 146 r2538 121396c
Encoding settings                        : cabac=1 / ref=9 / deblock=1:0:0 / analyse=0x3:0x113 / me=umh / subme=9 / psy=1 / psy_rd=1.00:0.00 / mixed_ref=1 / me_range=24 / chroma_me=1 / trellis=2 / 8x8dct=1 / cqm=0 / deadzone=21,11 / fast_pskip=0 / chroma_qp_offset=-2 / threads=12 / lookahead_threads=1 / sliced_threads=0 / nr=0 / decimate=1 / interlaced=0 / bluray_compat=0 / constrained_intra=0 / bframes=5 / b_pyramid=2 / b_adapt=2 / b_bias=0 / direct=3 / weightb=1 / open_gop=0 / weightp=2 / keyint=250 / keyint_min=25 / scenecut=40 / intra_refresh=0 / rc_lookahead=40 / rc=crf / mbtree=0 / crf=17.3 / qcomp=0.60 / qpmin=0 / qpmax=69 / qpstep=4 / vbv_maxrate=14000 / vbv_bufsize=14000 / crf_max=0.0 / nal_hrd=none / filler=0 / ip_ratio=1.40 / pb_ratio=1.30 / aq=3:1.00
Default                                  : Yes
Forced                                   : Yes
DURATION                                 : 01:52:06.720000000
NUMBER_OF_FRAMES                         : 403200
NUMBER_OF_BYTES                          : 5467515253
_STATISTICS_WRITING_APP                  : mkvmerge v9.7.1 ('Pandemonium') 64bit
_STATISTICS_WRITING_DATE_UTC             : 2017-02-21 07:15:25
_STATISTICS_TAGS                         : BPS DURATION NUMBER_OF_FRAMES NUMBER_OF_BYTES

Audio
ID                                       : 2
Format                                   : AC-3
Format/Info                              : Audio Coding 3
Mode extension                           : CM (complete main)
Format settings, Endianness              : Big
Codec ID                                 : A_AC3
Duration                                 : 1h 52mn
Bit rate mode                            : Constant
Bit rate                                 : 448 Kbps
Channel(s)                               : 6 channels
Channel positions                        : Front: L C R, Side: L R, LFE
Sampling rate                            : 48.0 KHz
Compression mode                         : Lossy
Stream size                              : 359 MiB (6%)
Title                                    : 5.1 @ 448 kbps
Language                                 : Ukrainian
Default                                  : Yes
Forced                                   : Yes

Text
ID                                       : 3
Format                                   : UTF-8
Codec ID                                 : S_TEXT/UTF8
Codec ID/Info                            : UTF-8 Plain Text
Title                                    : Forced
Language                                 : Ukrainian
Default                                  : Yes
Forced                                   : Yes
Скріншоти


Джерело відеоряду:
Особиста оцінка: 9 - давно не бачив настільки якісне кіно


 Трекер:    Зареєстрований   

Завантажити / скачати фільм українською



відео для новачків



 Зареєстрований:   2017-02-21 18:28
 Розмір:   5.45 GB 
 Оцінка фільму:   7.8/10 (Голосів: 8)
   
bot 
робот


З нами з: 30.09.07
Востаннє: 26.05.05
Повідомлень: 17695

2017-02-16 17:20  
Тему перенесено з Фільми в HD до форуму Анонси релізів


Drool

AngryBirdsUA 
Свій


З нами з: 24.02.10
Востаннє: 18.10.17
Повідомлень: 3037

2017-02-16 19:02  
Drool
Трохи зачекай буде звук на двд.

НТН 
Відео Гуртом - фільмокрай
Відео Гуртом - фільмокрай


З нами з: 25.12.11
Востаннє: 25.09.17
Повідомлень: 2177

2017-02-16 19:04  
AngryBirdsUA
УРАААА

Drool 
VIP


З нами з: 17.04.10
Востаннє: 17.10.17
Повідомлень: 1402

2017-02-16 23:06  
AngryBirdsUA написано:
Трохи зачекай буде звук на двд.

Чудово! Прийнято.

bot 
робот


З нами з: 30.09.07
Востаннє: 26.05.05
Повідомлень: 17695

2017-02-21 18:28  
Тему перенесено з Анонси релізів до форуму Фільми в HD


Drool

Jogino 
Новенький


З нами з: 21.04.13
Востаннє: 16.10.17
Повідомлень: 16

2017-02-22 19:54  
1 та 2 частини просто чудові. Комп'ютерна графіка вражає, Кренг круто промальований. 10 балів.
Drool 
VIP


З нами з: 17.04.10
Востаннє: 17.10.17
Повідомлень: 1402

2017-02-22 23:07  
Jogino, а як щодо 60 кадрів на секунду?
Jogino 
Новенький


З нами з: 21.04.13
Востаннє: 16.10.17
Повідомлень: 16

2017-02-25 20:10  
Drool
Та все чудово. Відверто кажучи, я був приємно вражений, побачивши в другій частині тих двох панків-мутантів та мозок з технодромом. Усе як у мультику з дитинства Happy Ще раз щиро дякую, отримав масу позитивних емоцій Happy

Ваш часовий пояс: GMT + 2 Години

Нова тема   Відповісти