Переслідування / Following (1998) 720p Ukr/Eng | Sub Eng

Нові коментарі

Нова тема   Відповісти
Автор Повідомлення
Anonymous 







2017-02-15 22:39  
Переслідування / Following (1998) 720p Ukr/Eng | Sub Eng

Переслідування / Following (1998) 720p Ukr/Eng | Sub Eng


Жанр: трилер, драма, детектив
Країна: Велика Британія



Підлітки до 16 років допускаються до фільму тільки у супроводі одного з батьків, або законного представника
Обмеження - до 16 років потрібний супровід батька або дорослого опікуна. Цей рейтинг показує, що оціночна комісія вирішила, що деякий матеріал цього фільму призначається для дорослих. Батьки повинні більше дізнатися про фільм перш, ніж узяти на його перегляд дітей. Рейтинґ R також може бути призначений унаслідок використовуваної у фільмі мови, теми, насильства, сексу або зображення вживання наркотиків.
Кінокомпанія: Next Wave Films
Бюджет: 6 000$
Касові збори: 48.482$
Режисер, продюсер, сценарист, оператор, монтажер: Крістофер Нолан / Christopher Nolan
Актори: Джеремі Теобелд / Jeremy Theobald, Алекс Гов / Alex Haw, Люссі Расел / Lucy Russell, Джон Нолан / John Nolan

Сюжет:
Молодий письменник, під час пошуку матеріалу, зустрічає грабіжника, котрий бере його під своє крило...
Перший повнометражний фільм відомого режисера Крістофера Нолана, для економії фільму було знято на чорно-білу плівку


Тривалість: 01:10:10
Якість: 720p
Відео:
кодек:
розмір кадру: 958x720
бітрейт: 7413 кб/с

Аудіо # 1:
мова: українська
переклад: багатоголосий закадровий
кодек: 2.0
бітрейт: 192 кб/с
Над озвученням працювали:
Озвучення: TRO[9]N, --Rom--, Марічка
Звук: --Rom--
Також подяка за підтримку та допомогу: Mirqn
Аудіо # 2:
мова: англійська
переклад: ориґінал
кодек: 5.1
бітрейт: 448 кб/с

Джерело озвучення:


Збережено ориґінальні розділи, як на Blu-Ray

Субтитри:
мова: англійська
тип: програмні (м'які)
формат: *.srt
Info
General
Unique ID : 247338070022052778398563726315022757500 (0xBA13945D02ED44BCA53F47EFB930AE7C)
Complete name : D:\Following 720p (1998) [Ukr, Eng. Sub Eng].
Format :
Format version : Version 4 / Version 2
File size : 3.95 GiB
Duration : 1h 10mn
Overall bit rate : 8 054 Kbps
Encoded date : UTC 2017-02-15 19:06:40
Writing application : mkvmerge v9.3.1 ('Mask Machine') 64bit
Writing library : libebml v1.3.4 + libmatroska v1.4.5
Attachements : Cover.jpg
DURATION : 01:10:10.176000000
NUMBER_OF_FRAMES : 131568
NUMBER_OF_BYTES : 101044224
_STATISTICS_WRITING_APP : mkvmerge v9.3.1 ('Mask Machine') 64bit
_STATISTICS_WRITING_DATE_UTC : 2017-02-15 19:06:40
_STATISTICS_TAGS : BPS DURATION NUMBER_OF_FRAMES NUMBER_OF_BYTES

Video
ID : 1
Format : AVC
Format/Info : Advanced Video Codec
Format profile : [email protected]
Format settings, CABAC : Yes
Format settings, ReFrames : 8 frames
Codec ID : V_MPEG4/ISO/AVC
Duration : 1h 10mn
Bit rate : 7 413 Kbps
Width : 958 pixels
Height : 720 pixels
Display aspect ratio : 4:3
Frame rate mode : Constant
Frame rate : 23.976 fps
Color space : YUV
Chroma subsampling : 4:2:0
Bit depth : 8 bits
Scan type : Progressive
Bits/(Pixel*Frame) : 0.448
Stream size : 3.56 GiB (90%)
Writing library : core 129 r2230 1cffe9f
Encoding settings : cabac=1 / ref=8 / deblock=1:-2:-2 / analyse=0x3:0x133 / me=umh / subme=9 / psy=1 / psy_rd=1.20:0.20 / mixed_ref=1 / me_range=16 / chroma_me=1 / trellis=2 / 8x8dct=1 / cqm=0 / deadzone=21,11 / fast_pskip=1 / chroma_qp_offset=-3 / threads=6 / lookahead_threads=1 / sliced_threads=0 / nr=0 / decimate=0 / interlaced=0 / bluray_compat=0 / constrained_intra=0 / bframes=3 / b_pyramid=2 / b_adapt=2 / b_bias=0 / direct=3 / weightb=1 / open_gop=0 / weightp=2 / keyint=240 / keyint_min=1 / scenecut=40 / intra_refresh=0 / rc_lookahead=60 / rc=2pass / mbtree=0 / bitrate=7413 / ratetol=1.0 / qcomp=0.60 / qpmin=10 / qpmax=51 / qpstep=4 / cplxblur=20.0 / qblur=0.5 / vbv_maxrate=38000 / vbv_bufsize=38000 / nal_hrd=none / ip_ratio=1.40 / pb_ratio=1.30 / aq=1:1.00
Language : English
Default : Yes
Forced : No

Audio #1
ID : 2
Format : AC-3
Format/Info : Audio Coding 3
Mode extension : CM (complete main)
Format settings, Endianness : Big
Codec ID : A_AC3
Duration : 1h 10mn
Bit rate mode : Constant
Bit rate : 192 Kbps
Channel(s) : 2 channels
Channel positions : Front: L R
Sampling rate : 48.0 KHz
Compression mode : Lossy
Stream size : 96.4 MiB (2%)
Title : Багатоголосий Закадровий | Monster Mix|
Language : Ukrainian
Default : Yes
Forced : No

Audio #2
ID : 3
Format : AC-3
Format/Info : Audio Coding 3
Mode extension : CM (complete main)
Format settings, Endianness : Big
Codec ID : A_AC3
Duration : 1h 10mn
Bit rate mode : Constant
Bit rate : 448 Kbps
Channel(s) : 6 channels
Channel positions : Front: L C R, Side: L R, LFE
Sampling rate : 48.0 KHz
Compression mode : Lossy
Stream size : 225 MiB (6%)
Title : Original
Language : English
Default : No
Forced : No

Text
ID : 4
Format : UTF-8
Codec ID : S_TEXT/UTF8
Codec ID/Info : UTF-8 Plain Text
Title : sub
Language : English
Default : No
Forced : No

Menu
00:00:00.000 : en:"The Following is My Explanation"
00:17:03.231 : en:"Can I Buy You a Drink?"
00:21:38.714 : en:Getting Protection
00:22:43.195 : en:"He's a Sad Fucker with No Social Life"
00:25:17.516 : en:"They Rifled Through My Underwear"
00:28:49.728 : en:The Club
00:29:46.785 : en:A Model's Apartment
00:35:07.731 : en:"He Made a Mess on My Carpet"
00:38:04.282 : en:The Safe
00:41:02.502 : en:"I've Thought It All Through"
00:49:04.942 : en:The Money
00:51:01.976 : en:"He's Our Man"
00:59:27.522 : en:"That's It, Unless You've Got Any Questions"
Скріншоти









Джерело: &
Особиста оцінка: 8 - мені сподобалося, любителям Нолана обов'язково варто дивитись!
Подяка: Усім зазначеним під спойлером "Над озвученням працювали".


Золотий реліз (завантажене не впливає на рейтинг)
 Трекер:    Зареєстрований   

Завантажити / скачати фільм українською



відео для новачків



 Зареєстрований:   2017-02-15 22:39
 Розмір:   3.95 GB 
 Оцінка фільму:   3.8/10 (Голосів: 16)
   
Інші релізи
   Переслідування / Following (1998) AVC Patriot_ukr  2 / 0   2.24 GB   2017-02-15 22:38 
   Переслідування / Following (1998) patriot2305  5 / 0   1.1 GB   2014-04-09 18:25 
   Переслідування / Following (1998) Ukr/Eng --Rom--  3 / 0   932 MB   2012-03-13 17:26 
Ваш часовий пояс: GMT + 2 Години

Нова тема   Відповісти