Амадор / Amador (2010) 1080p Ukr/Spa | Sub Spa/Eng

Нові коментарі

Нова тема   Відповісти
Автор Повідомлення
staf777 
Відео Гуртом - підтримка та поширення
Відео Гуртом - підтримка та поширення


З нами з: 16.11.16
Востаннє: 20.10.17
Повідомлень: 522

2017-02-14 19:30  
Амадор / Amador (2010) 1080p Ukr/Spa | Sub Spa/Eng

Амадор / Amador (2010) 1080p Ukr/Spa | Sub Spa/Eng


Жанр: драма
Країна: Іспанія



Режисер: Фернандо Леон Де Араноа
Актори: Магалі Сольєр, Челсі Бугалло, Сонія Альмарча, Хуан Альберто Де Бургос, Фені Де Кастро, Прісцила Делгадо, Антоніо Дюран «Морріс», Елізар Ортіз, Рекуел Перез

Сюжет:
Молода дівчина у скрутному становищі - вагітна й без копійки в кишені - влаштовується доглядати пенсіонера на ім'я Амадор. Поки від Амадора вислизає життя, а всередині неї зростає нове, між ними зав'язується дружба та з'являються спільні секрети.


Тривалість: 01:52:46
Якість: 1080p
Відео:
кодек:
розмір кадру: 1920x804
бітрейт: 10,2 Mб/с

Аудіо # 1:
мова: українська
переклад: багатоголосий закадровий | KWA Sound Production на замовлення Артхаус-Трафік
кодек: 2.0
бітрейт: 192 кб/с

Аудіо # 2:
мова: іспанська
переклад: оригінал
кодек: 5.1
бітрейт: 640 кб/с

Субтитри:
мова: іспанська
тип: програмні (м'які)
формат: *.srt

Субтитри:
мова: англійська
тип: програмні (м'які)
формат: *.srt
Info
General
Unique ID : 193370816549696524358264240187773749899 (0x9179DD5630011CCCA148F82804FB0A8B)
Complete name : P:\HD українською » Фільми в HD\Драма\Amador (2010) [Ukr,Spa sub.Spa,Eng] 1080p [Hurtom].
Format :
Format version : Version 4 / Version 2
File size : 8.65 GiB
Duration : 1 h 52 min
Overall bit rate : 11.0 Mb/s
Movie name : Amador (2010) [Ukr,Spa sub.Spa,Eng] 1080p [Hurtom]
Encoded date : UTC 2017-02-14 15:42:13
Writing application : mkvmerge v9.8.0 ('Kuglblids') 64bit
Writing library : libebml v1.3.4 + libmatroska v1.4.5

Video
ID : 1
Format : AVC
Format/Info : Advanced Video Codec
Format profile : [email protected]
Format settings, CABAC : Yes
Format settings, ReFrames : 5 frames
Codec ID : V_MPEG4/ISO/AVC
Duration : 1 h 52 min
Bit rate : 10.2 Mb/s
Width : 1 920 pixels
Height : 804 pixels
Display aspect ratio : 2.40:1
Frame rate mode : Constant
Frame rate : 24.000 FPS
Color space : YUV
Chroma subsampling : 4:2:0
Bit depth : 8 bits
Scan type : Progressive
Bits/(Pixel*Frame) : 0.274
Stream size : 8.00 GiB (92%)
Writing library : core 148 r2665 a01e339
Encoding settings : cabac=1 / ref=5 / deblock=1:-3:-3 / analyse=0x3:0x133 / me=umh / subme=11 / psy=1 / psy_rd=1.10:0.00 / mixed_ref=1 / me_range=32 / chroma_me=1 / trellis=2 / 8x8dct=1 / cqm=0 / deadzone=21,11 / fast_pskip=0 / chroma_qp_offset=-2 / threads=18 / lookahead_threads=3 / sliced_threads=0 / nr=0 / decimate=0 / interlaced=0 / bluray_compat=0 / constrained_intra=0 / bframes=8 / b_pyramid=2 / b_adapt=2 / b_bias=0 / direct=3 / weightb=1 / open_gop=0 / weightp=2 / keyint=240 / keyint_min=24 / scenecut=40 / intra_refresh=0 / rc_lookahead=60 / rc=crf / mbtree=0 / crf=15.0 / qcomp=0.70 / qpmin=0 / qpmax=51 / qpstep=4 / vbv_maxrate=40000 / vbv_bufsize=40000 / crf_max=0.0 / nal_hrd=none / filler=0 / ip_ratio=1.20 / pb_ratio=1.20 / aq=3:0.60
Language : Spanish
Default : Yes
Forced : No

Audio #1
ID : 2
Format : AC-3
Format/Info : Audio Coding 3
Mode extension : CM (complete main)
Format settings, Endianness : Big
Codec ID : A_AC3
Duration : 1 h 52 min
Bit rate mode : Constant
Bit rate : 192 kb/s
Channel(s) : 2 channels
Channel positions : Front: L R
Sampling rate : 48.0 kHz
Frame rate : 31.250 FPS (1536 spf)
Bit depth : 16 bits
Compression mode : Lossy
Stream size : 155 MiB (2%)
Title : UA-DVO, KWA Sound Production|
Language : Ukrainian
Default : Yes
Forced : Yes

Audio #2
ID : 3
Format : AC-3
Format/Info : Audio Coding 3
Mode extension : CM (complete main)
Format settings, Endianness : Big
Codec ID : A_AC3
Duration : 1 h 52 min
Bit rate mode : Constant
Bit rate : 640 kb/s
Channel(s) : 6 channels
Channel positions : Front: L C R, Side: L R, LFE
Sampling rate : 48.0 kHz
Frame rate : 31.250 FPS (1536 spf)
Bit depth : 16 bits
Compression mode : Lossy
Stream size : 516 MiB (6%)
Language : Spanish
Default : No
Forced : No

Text #1
ID : 4
Format : UTF-8
Codec ID : S_TEXT/UTF8
Codec ID/Info : UTF-8 Plain Text
Duration : 1 h 45 min
Bit rate : 35 b/s
Count of elements : 939
Stream size : 27.5 KiB (0%)
Language : Spanish
Default : No
Forced : No

Text #2
ID : 5
Format : UTF-8
Codec ID : S_TEXT/UTF8
Codec ID/Info : UTF-8 Plain Text
Duration : 1 h 45 min
Bit rate : 34 b/s
Count of elements : 934
Stream size : 26.7 KiB (0%)
Language : English
Default : No
Forced : No

Menu
00:00:00.000 : en:00:00:00.000
00:10:36.708 : en:00:10:36.708
00:26:38.167 : en:00:26:38.167
00:42:26.750 : en:00:42:26.750
00:51:29.292 : en:00:51:29.292
01:07:06.583 : en:01:07:06.583
01:21:26.167 : en:01:21:26.167
01:35:37.417 : en:01:35:37.417
Скріншоти



Джерело: &


 Трекер:    Зареєстрований   

Завантажити / скачати фільм українською



відео для новачків



 Зареєстрований:   2017-02-14 19:30
 Розмір:   8.65 GB 
 Оцінка фільму:   1/10 (Голосів: 1)
   
Інші релізи
   Амадор / Amador (2010) Ukr/Spa AngryBirdsUA  3 / 0   2.08 GB   2013-06-19 20:56 
Ваш часовий пояс: GMT + 2 Години

Нова тема   Відповісти