Академія Юних Відьом / Little Witch Academia / リトルウィッチアカデミア [1-15 з 25] (2017) Jap | sub Ukr

Нові коментарі

Нова тема   Відповісти
Автор Повідомлення
Gedet 
Відео Гуртом - субтитрування
Відео Гуртом - субтитрування


З нами з: 17.11.11
Востаннє: 17.05.17
Повідомлень: 1798

2017-02-14 13:27  
Академія Юних Відьом / Little Witch Academia / リトルウィッチアカデミア [1-15 з 25] (2017) Jap | sub Ukr

Академія Юних Відьом / Little Witch Academia / リトルウィッチアカデミア [1-15 з 25] (2017) Jap | sub Ukr


Жанр: Пригоди, фентезі, комедія, школа, магія
Країна: Японія



Кінокомпанія: Тригер
Режисер: Йо Йошінарі
Актори: Мічіо Мурасе, Меґумі Хан, Фуміко Орікаса, Йоко Хікаса

Сюжет:
Ацко Каґарі у дитинстві потрапила на магічне шоу, де виступала відьма Шайні Черіот. Відтоді вона мріє стати такою, як вона, і чарувати так само. Але для цього потрібно вчитися. І тому батьки відправляють її до Академії Луна Нова, де колись вчилася її кумирка. Акко нічого не знає про магію, тому їй слід із найгіршої відьми в історії перетворитися в найкращу.


Тривалість: 00:24:00
Якість:
Відео:
кодек:
розмір кадру: 1920х1080
бітрейт: 6000 кб/с

Аудіо:
мова: японська
переклад: оригінал
кодек: 2.0
бітрейт: 315 кб/с

Субтитри:
мова: українська
тип: програмні (м'які)
формат: *.ass
переклад: власний
Перелік серій

1. Початок нової історії
2. Папіліодія
3. Мене не спинити
4. Ніч Прийшла
5. Луна Нова й Білий Дракон
6. Фонтан Полярної
7. Оранжева субмарина
8. Сновидіння Сплячої Сюсі
9. Подорожні записки покійника з Брістонбері
10. Бджолина буча
11. Блу Мун
12. Що лиш ти...
13. Магія Савінь
14. Нью Ейдж Меджік
Info
General
Complete name : K:\Академія юних відьом 2017\Little Witch Academia - 01.mp4
Format : MPEG-4
Format profile : Base Media
Codec ID : isom (isom/avc1/iso6)
File size : 1.04 GiB
Duration : 23 min 59 s
Overall bit rate mode : Variable
Overall bit rate : 6 228 kb/s
Encoded date : UTC 2017-01-23 08:55:58
Tagged date : UTC 2017-01-23 08:55:58

Video
ID : 1
Format : AVC
Format/Info : Advanced Video Codec
Format profile : [email protected]
Format settings, CABAC : Yes
Format settings, ReFrames : 16 frames
Codec ID : avc1
Codec ID/Info : Advanced Video Coding
Duration : 23 min 59 s
Bit rate : 5 910 kb/s
Maximum bit rate : 21.2 Mb/s
Width : 1 920 pixels
Height : 1 080 pixels
Display aspect ratio : 16:9
Frame rate mode : Constant
Frame rate : 23.976 (24000/1001) FPS
Color space : YUV
Chroma subsampling : 4:2:0
Bit depth : 8 bits
Scan type : Progressive
Bits/(Pixel*Frame) : 0.119
Stream size : 1 014 MiB (95%)
Writing library : core 148 r2638 7599210
Encoding settings : cabac=1 / ref=16 / deblock=1:1:1 / analyse=0x3:0x133 / me=umh / subme=10 / psy=1 / psy_rd=1.00:0.00 / mixed_ref=1 / me_range=24 / chroma_me=1 / trellis=2 / 8x8dct=1 / cqm=0 / deadzone=21,11 / fast_pskip=1 / chroma_qp_offset=-2 / threads=6 / lookahead_threads=1 / sliced_threads=0 / nr=0 / decimate=1 / interlaced=0 / bluray_compat=0 / constrained_intra=0 / bframes=10 / b_pyramid=2 / b_adapt=2 / b_bias=0 / direct=3 / weightb=1 / open_gop=0 / weightp=2 / keyint=240 / keyint_min=23 / scenecut=40 / intra_refresh=0 / rc_lookahead=60 / rc=crf / mbtree=1 / crf=16.0 / qcomp=0.60 / qpmin=0 / qpmax=69 / qpstep=4 / ip_ratio=1.40 / aq=1:1.00
Encoded date : UTC 2017-01-23 08:55:58
Tagged date : UTC 2017-01-23 08:56:05

Audio
ID : 2
Format :
Format/Info : Advanced Audio Codec
Format profile : LC
Codec ID : 40
Duration : 23 min 59 s
Bit rate mode : Variable
Bit rate : 315 kb/s
Maximum bit rate : 384 kb/s
Channel(s) : 2 channels
Channel positions : Front: L R
Sampling rate : 48.0 kHz
Frame rate : 46.875 FPS (1024 spf)
Compression mode : Lossy
Stream size : 54.1 MiB (5%)
Language : Japanese
Encoded date : UTC 2017-01-23 03:37:13
Tagged date : UTC 2017-01-23 08:56:05
Скріншоти








Особиста оцінка: 10 - без зайвих вагань рекомендую всім!


Золотий реліз (завантажене не впливає на рейтинг)
 Трекер:    Зареєстрований   

Завантажити / скачати аніме українською



відео для новачків



 Зареєстрований:   2017-04-20 21:04
 Розмір:   10.67 GB 
 Оцінка аніме:   9.6/10 (Голосів: 5)
   
Gedet 
Відео Гуртом - субтитрування
Відео Гуртом - субтитрування


З нами з: 17.11.11
Востаннє: 17.05.17
Повідомлень: 1798

2017-02-23 20:46  
Новенька підійшла.
Gedet 
Відео Гуртом - субтитрування
Відео Гуртом - субтитрування


З нами з: 17.11.11
Востаннє: 17.05.17
Повідомлень: 1798

2017-03-08 19:41  
Новенька відьмочка.
Gedet 
Відео Гуртом - субтитрування
Відео Гуртом - субтитрування


З нами з: 17.11.11
Востаннє: 17.05.17
Повідомлень: 1798

2017-04-01 10:10  
Нова серія. Люблю Ірландський колорит.
Teisson 
Новенький


З нами з: 04.01.11
Востаннє: 04.05.17
Повідомлень: 7

2017-04-01 21:00  
Дякую за ваш переклад! =3
Gedet 
Відео Гуртом - субтитрування
Відео Гуртом - субтитрування


З нами з: 17.11.11
Востаннє: 17.05.17
Повідомлень: 1798

2017-04-06 22:45  
Нова, 13 серія.
Gedet 
Відео Гуртом - субтитрування
Відео Гуртом - субтитрування


З нами з: 17.11.11
Востаннє: 17.05.17
Повідомлень: 1798

2017-04-13 17:29  
Нова, 14 серія. Тимчасово у 720р.
helpmeplease 
Новенький


З нами з: 17.06.14
Востаннє: 21.08.17
Повідомлень: 20

2017-04-18 22:58  
ДЯКУЮ!
Gedet 
Відео Гуртом - субтитрування
Відео Гуртом - субтитрування


З нами з: 17.11.11
Востаннє: 17.05.17
Повідомлень: 1798

2017-04-19 01:27  
Нове серія вже завтра. І для всіх глядачів хочу пояснити. Професорку новітньої магії насправді звуть Круа, вона типу француженка, але чогось мені Курва більше подобається. Та й до сюжету пасує.Happy
helpmeplease 
Новенький


З нами з: 17.06.14
Востаннє: 21.08.17
Повідомлень: 20

2017-04-19 19:09  
Із нетерпінням чекаю на нову серію!
Дякую вам за вашу працю!

Gedet 
Відео Гуртом - субтитрування
Відео Гуртом - субтитрування


З нами з: 17.11.11
Востаннє: 17.05.17
Повідомлень: 1798

2017-04-20 21:07  
Нова серія далі у 720р, бо ніхто 1080р ріп е викладає.
helpmeplease 
Новенький


З нами з: 17.06.14
Востаннє: 21.08.17
Повідомлень: 20

2017-04-20 21:25  
Дякую!
yukoff 
Свій


З нами з: 11.08.15
Востаннє: 21.08.17
Повідомлень: 53

2017-05-16 00:48  
Gedet, а чи буде продовження? Дуже дякую за переклад!
opa79 
Новенький


З нами з: 01.12.11
Востаннє: 19.08.17
Повідомлень: 20

2017-05-22 12:29  
ДЯКУЮ!
А Little Witch Academia: Mahoujikake no Parade колись буде?

yukoff 
Свій


З нами з: 11.08.15
Востаннє: 21.08.17
Повідомлень: 53

2017-05-22 20:22  
Цитата:
opa79
А Little Witch Academia: Mahoujikake no Parade колись буде?

Теж на це сподіваюсь

opa79 
Новенький


З нами з: 01.12.11
Востаннє: 19.08.17
Повідомлень: 20

2017-06-02 12:24  
Gedet, скажіть будь ласка, чи буде випущено Ваш переклад серій з 16 по 21-у? І коли на нього можна чекати, якщо так?
lex 
Відео Гуртом - підтримка та поширення
Відео Гуртом - підтримка та поширення


З нами з: 25.12.07
Востаннє: 21.08.17
Повідомлень: 577

2017-08-11 18:57  
beru na pidtrymku
Ваш часовий пояс: GMT + 2 Години

Нова тема   Відповісти