Я завалю тебе, козел / I'm Gonna Git You Sucka (1988) AVC Ukr/Eng | Sub Eng

Нові коментарі

Нова тема   Відповісти
Автор Повідомлення
Electroz 
Відео Гуртом - підтримка та поширення
Відео Гуртом - підтримка та поширення


З нами з: 18.09.14
Востаннє: 27.07.17
Повідомлень: 1462

2017-02-13 20:58  
Я завалю тебе, козел / I'm Gonna Git You Sucka (1988) AVC Ukr/Eng | Sub Eng

Я завалю тебе, козел / I'm Gonna Git You Sucka (1988) AVC Ukr/Eng | Sub Eng


Жанр: бойовик, комедія
Країна: США



Кінокомпанія: Front Films, Ivory Way Productions, Raymond Katz Production
Режисер: Кінен Айворі Веянс
Актори: Кінен Айворі Веянс, Берні Кейсі, Антоніу Фаргас, Стів Джеймс, Айзек Хейз та інші

Сюжет:
Джек Спейд повертається з армії до рідного чорного кварталу, де загинув його брат, Джун Баг. Джек оголошує війну містерові Бігу, місцевому босові мафії. Армію Джека поведе кумир з дитячих років, Джон Слейд, людина, яка має величезний досвід ведення військових дій проти поганих хлопців.


Тривалість: 01:30:43
Якість:
Відео:
кодек:
розмір кадру: 1024 х 554
бітрейт: 2858 кб/с

Аудіо # 1:
мова: українська
переклад: багатоголосий закадровий
кодек: 2.0
бітрейт: 192 кб/с

Аудіо # 2:
мова: англійська
переклад: оригінал
кодек: 2.0
бітрейт: 192 кб/с

Субтитри:
мова: англійська
тип: програмні (м'які)
формат: *.srt
Info
Код:
General
Unique ID                                : 196159796473552379887237832783044103121 (0x939300A9D3564BA9923228D257A54BD1)
Complete name                            : D:\I'm Gonna Git You Sucka (1988) AVC [UKR_ENG] [Hurtom].
Format                                   :
Format version                           : Version 4 / Version 2
File size                                : 2.01 GiB
Duration                                 : 1 h 30 min
Overall bit rate                         : 3 178 kb/s
Encoded date                             : UTC 2017-02-13 17:49:43
Writing application                      : mkvmerge v9.8.0 ('Kuglblids') 64bit
Writing library                          : libebml v1.3.4 + libmatroska v1.4.5
Cover                                    : Yes
Attachments                              : cover.jpg

Video
ID                                       : 1
Format                                   : AVC
Format/Info                              : Advanced Video Codec
Format profile                           : [email protected]
Format settings, CABAC                   : Yes
Format settings, ReFrames                : 14 frames
Codec ID                                 : V_MPEG4/ISO/AVC
Duration                                 : 1 h 28 min
Bit rate                                 : 2 858 kb/s
Width                                    : 1 024 pixels
Height                                   : 554 pixels
Display aspect ratio                     : 1.85:1
Frame rate mode                          : Constant
Frame rate                               : 23.976 (24000/1001) FPS
Color space                              : YUV
Chroma subsampling                       : 4:2:0
Bit depth                                : 8 bits
Scan type                                : Progressive
Bits/(Pixel*Frame)                       : 0.210
Stream size                              : 1.77 GiB (88%)
Writing library                          : core 148 r2638 7599210
Encoding settings                        : cabac=1 / ref=14 / deblock=1:0:0 / analyse=0x3:0x133 / me=umh / subme=10 / psy=1 / psy_rd=1.00:0.00 / mixed_ref=1 / me_range=24 / chroma_me=1 / trellis=2 / 8x8dct=1 / cqm=0 / deadzone=21,11 / fast_pskip=1 / chroma_qp_offset=-2 / threads=6 / lookahead_threads=1 / sliced_threads=0 / nr=0 / decimate=1 / interlaced=0 / bluray_compat=0 / constrained_intra=0 / bframes=12 / b_pyramid=2 / b_adapt=2 / b_bias=0 / direct=3 / weightb=1 / open_gop=0 / weightp=2 / keyint=240 / keyint_min=23 / scenecut=40 / intra_refresh=0 / rc_lookahead=60 / rc=2pass / mbtree=0 / bitrate=2858 / ratetol=1.0 / qcomp=0.60 / qpmin=0 / qpmax=69 / qpstep=4 / cplxblur=20.0 / qblur=0.5 / vbv_maxrate=62500 / vbv_bufsize=78125 / nal_hrd=none / filler=0 / ip_ratio=1.40 / pb_ratio=1.30 / aq=1:1.00
Language                                 : English
Default                                  : Yes
Forced                                   : No

Audio #1
ID                                       : 2
Format                                   : AC-3
Format/Info                              : Audio Coding 3
Mode extension                           : CM (complete main)
Format settings, Endianness              : Big
Codec ID                                 : A_AC3
Duration                                 : 1 h 30 min
Bit rate mode                            : Constant
Bit rate                                 : 192 kb/s
Channel(s)                               : 2 channels
Channel positions                        : Front: L R
Sampling rate                            : 48.0 kHz
Frame rate                               : 31.250 FPS (1536 spf)
Bit depth                                : 16 bits
Compression mode                         : Lossy
Stream size                              : 125 MiB (6%)
Title                                    : Ukr-Hurtom
Language                                 : Ukrainian
Default                                  : Yes
Forced                                   : Yes

Audio #2
ID                                       : 3
Format                                   : AC-3
Format/Info                              : Audio Coding 3
Mode extension                           : CM (complete main)
Format settings, Endianness              : Big
Codec ID                                 : A_AC3
Duration                                 : 1 h 30 min
Bit rate mode                            : Constant
Bit rate                                 : 192 kb/s
Channel(s)                               : 2 channels
Channel positions                        : Front: L R
Sampling rate                            : 48.0 kHz
Frame rate                               : 31.250 FPS (1536 spf)
Bit depth                                : 16 bits
Compression mode                         : Lossy
Stream size                              : 125 MiB (6%)
Title                                    : English
Language                                 : English
Default                                  : No
Forced                                   : No

Text
ID                                       : 4
Format                                   : UTF-8
Codec ID                                 : S_TEXT/UTF8
Codec ID/Info                            : UTF-8 Plain Text
Duration                                 : 1 h 23 min
Bit rate                                 : 74 b/s
Count of elements                        : 1293
Stream size                              : 45.7 KiB (0%)
Title                                    : English
Language                                 : English
Default                                  : No
Forced                                   : No



Подяка пану Sando7 за запис з ТБ
Джерело: &
Особиста оцінка: 0 - не дивився


Срібний реліз (на рейтинг впливає 50% завантаженого)
 Трекер:    Зареєстрований   

Завантажити / скачати фільм українською



відео для новачків



 Зареєстрований:   2017-02-13 20:58
 Розмір:   2.01 GB 
 Оцінка фільму:   7/10 (Голосів: 6)
   
bogdan8249 
Відео Гуртом - фільмокрай
Відео Гуртом - фільмокрай


З нами з: 09.08.08
Востаннє: 27.07.17
Повідомлень: 1146

2017-02-14 18:04  
Здається в українській назві, після слова «тебе», має стояти кома.
Electroz 
Відео Гуртом - підтримка та поширення
Відео Гуртом - підтримка та поширення


З нами з: 18.09.14
Востаннє: 27.07.17
Повідомлень: 1462

2017-02-14 18:11  
bogdan8249
Назва взята з телеканалу https://toloka.to/t74610-480#876349

bogdan8249 
Відео Гуртом - фільмокрай
Відео Гуртом - фільмокрай


З нами з: 09.08.08
Востаннє: 27.07.17
Повідомлень: 1146

2017-02-14 18:33  
Electroz написано:
Назва взята з телеканалу https://toloka.to/t74610-480#876349

З телеканалів ми беремо звукові доріжки або записуємо відео. На них чуємо назви. Рідко буває, що ми там бачимо назву (хіба що, під час реклами та після реклами).
А Sando7 можливо теж помилився.

Electroz 
Відео Гуртом - підтримка та поширення
Відео Гуртом - підтримка та поширення


З нами з: 18.09.14
Востаннє: 27.07.17
Повідомлень: 1462

2017-02-14 22:11  
bogdan8249
Виправив.

kotiko4321 
Новенький


З нами з: 18.11.16
Востаннє: 23.07.17
Повідомлень: 12

2017-02-19 16:40  
Подивився фільм і можу сказати, що він 10 з 10, добре посміявся))
myrko1 
Новенький


З нами з: 24.10.09
Востаннє: 02.06.17
Повідомлень: 13

2017-02-21 23:02  
витримав 20 хвилин. Може у 88 ці плоскі жарти і були хорошим гумором. Не раджу
Myk1209 
Поважний учасник


З нами з: 04.02.12
Востаннє: 27.07.17
Повідомлень: 223

2017-02-22 08:10  
Не кіноSad (1) Фарс якийсьSad (1)
1-!

Ваш часовий пояс: GMT + 2 Години

Нова тема   Відповісти