Воїни Еллади / Der Wächter des Hades / Hellhounds (2009) Remux 1080p Ukr/Eng

Нові коментарі

Нова тема   Відповісти
Останній раз роздавалося Ulis (2017-10-03)
Автор Повідомлення
staf777 
Відео Гуртом - підтримка та поширення
Відео Гуртом - підтримка та поширення


З нами з: 16.11.16
Востаннє: 11.09.17
Повідомлень: 522

2017-02-13 17:24  
Воїни Еллади / Der Wächter des Hades / Hellhounds (2009) Remux 1080p Ukr/Eng

Воїни Еллади / Der Wächter des Hades / Hellhounds (2009) Remux 1080p Ukr/Eng
Укр. постер

Воїни Еллади / Der Wächter des Hades / Hellhounds (2009) Remux 1080p Ukr/Eng
Жанр: фентезі, пригодницький
Країна: Канада



Кінокомпанія: Muse Entertainment Enterprises, RHI Entertainment
Режисер: Ріккі Шродер
Актори: Скот Елрод, Адам Бучер, Аманда Брукс, Бен Кросс та ін.

Сюжет:
У розпал королівського весілля, давньогрецька принцеса-наречена, отруєна заздрісним боярином нареченого, потрапляє в царство мертвих, де стає рабинею володаря Аїда. Маючи намір звільнити кохану, хоробрий воїн відправляється в підземний світ, щоб битися з найжорстокішими істотами в світі - гончими пекла...


Тривалість: 01:23:31
Якість: Remux 1080p
Відео:
кодек:
розмір кадру: 1920x1080
бітрейт: 27,5 Mб/с

Аудіо # 1:
мова: українська
переклад: багатоголосий закадровий
кодек: 2.0
бітрейт: 192 кб/с

Аудіо # 2:
мова: англійська
переклад: оригінал
кодек: -HD MA 7.1
бітрейт: 1411 кб/с
Info
General
Unique ID : 247134469085932651289617778368930114121 (0xB9EC5E0FE93D0D498F9E944ECAC3EA49)
Complete name : P:\HD українською » Фільми в HD\Фентезі\Hellhounds (2009) [Ukr,Eng] Remux 1080p [Hurtom] .
Format :
Format version : Version 4 / Version 2
File size : 17.0 GiB
Duration : 1 h 23 min
Overall bit rate : 29.1 Mb/s
Movie name : Hellhounds (2009) [Ukr,Eng] Remux 1080p [Hurtom]
Encoded date : UTC 2017-02-13 17:40:02
Writing application : mkvmerge v9.8.0 ('Kuglblids') 64bit
Writing library : libebml v1.3.4 + libmatroska v1.4.5

Video
ID : 1
Format : MPEG Video
Format version : Version 2
Format profile : [email protected]
Format settings, BVOP : Yes
Format settings, Matrix : Default
Format settings, GOP : M=3, N=12
Codec ID : V_MPEG2
Codec ID/Info : MPEG 1 or 2 Video
Duration : 1 h 23 min
Bit rate mode : Constant
Bit rate : 27.5 Mb/s
Maximum bit rate : 28.0 Mb/s
Width : 1 920 pixels
Height : 1 080 pixels
Display aspect ratio : 16:9
Frame rate mode : Constant
Frame rate : 25.000 FPS
Standard : PAL
Color space : YUV
Chroma subsampling : 4:2:0
Bit depth : 8 bits
Scan type : Progressive
Compression mode : Lossy
Bits/(Pixel*Frame) : 0.531
Time code of first frame : 00:00:00:00
Time code source : Group of pictures header
GOP, Open/Closed : Open
GOP, Open/Closed of first frame : Closed
Stream size : 16.1 GiB (95%)
Default : Yes
Forced : No
Color primaries : BT.709
Transfer characteristics : BT.709
Matrix coefficients : BT.709

Audio #1
ID : 2
Format : AC-3
Format/Info : Audio Coding 3
Mode extension : CM (complete main)
Format settings, Endianness : Big
Codec ID : A_AC3
Duration : 1 h 23 min
Bit rate mode : Constant
Bit rate : 192 kb/s
Channel(s) : 2 channels
Channel positions : Front: L R
Sampling rate : 48.0 kHz
Frame rate : 31.250 FPS (1536 spf)
Bit depth : 16 bits
Compression mode : Lossy
Stream size : 115 MiB (1%)
Language : Ukrainian
Default : Yes
Forced : Yes

Audio #2
ID : 3
Format :
Format/Info : Digital Theater Systems
Format profile : MA / ES Matrix / Core
Mode : 16
Format settings, Endianness : Big
Codec ID : A_DTS
Duration : 1 h 23 min
Bit rate mode : Variable / Constant / Constant
Bit rate : 1 411.2 kb/s / 768 kb/s / 768 kb/s
Channel(s) : 8 channels / 7 channels / 6 channels
Channel positions : Front: L C R, Side: L R, Back: L R, LFE / Front: L C R, Side: L R, Back: C, LFE / Front: L C R, Side: L R, LFE
Sampling rate : 48.0 kHz
Frame rate : 93.750 FPS (512 spf)
Bit depth : 16 bits
Compression mode : Lossless / Lossy / Lossy
Stream size : 834 MiB (5%)
Language : English
Default : No
Forced : No
Скріншоти



Джерело: &


Золотий реліз (завантажене не впливає на рейтинг)
 Трекер:    Зареєстрований   

Завантажити / скачати фільм українською



відео для новачків



 Зареєстрований:   2017-02-13 21:22
 Розмір:   17 GB 
 Оцінка фільму:   10/10 (Голосів: 3)
   
Інші релізи
staf777 
Відео Гуртом - підтримка та поширення
Відео Гуртом - підтримка та поширення


З нами з: 16.11.16
Востаннє: 11.09.17
Повідомлень: 522

2017-02-13 19:54  
Німецький мабуть треба вказати як дубляж
igor911 
Відео Гуртом
Відео Гуртом


З нами з: 18.01.08
Востаннє: 18.10.17
Повідомлень: 7913

2017-02-13 20:12  
staf777 написано:
Країна: Канада
Аудіо # 3:
мова: німецька

Правила оформлення відео-релізу написано:
Крім українських доріжок допускається тільки доріжка і коментарі мовою оригіналу.


Додано через 1 хвилину 4 секунди:

німецьке аудіо треба взагалі прибрати.

staf777 
Відео Гуртом - підтримка та поширення
Відео Гуртом - підтримка та поширення


З нами з: 16.11.16
Востаннє: 11.09.17
Повідомлень: 522

2017-02-13 21:24  
igor911
Прибрав

hetzendorf 
Відео Гуртом - підтримка та поширення
Відео Гуртом - підтримка та поширення


З нами з: 23.07.15
Востаннє: 18.10.17
Повідомлень: 492

2017-02-13 21:36  
staf777 написано:
Der Wächter des Hades

А німці назвали фільм «Вартовий Аїда»

Ваш часовий пояс: GMT + 2 Години

Нова тема   Відповісти