Завантажити та скачати торренти українською


Ліло і Стіч / Lilo and Stitch: The Series (Сезон 1, серій 11 з 39) (2003) AVC

Нові коментарі

Нова тема   Відповісти
Автор Повідомлення
sergiyko.5 
VIP


З нами з: 25.02.16
Востаннє: 20.02.17
Повідомлень: 612

2017-02-13 16:10  
Ліло і Стіч / Lilo and Stitch: The Series (Сезон 1, серій 11 з 39) (2003) AVC

Ліло і Стіч / Lilo and Stitch: The Series (Сезон 1, серій 11 з 39) (2003) AVC

Жанр: анімація, фантастика, комедія
Країна: США
Кінокомпанія: Disney Television Animation

Режисер: Віктор Кук, Дон Маккіннон, Роб ЛаДука
Актори/ролі озвучують: Дейві Чейз, Кріс Сандерс, Девід Огден Стайерз, Грегорі А. Купріану, Джилліан Маріса, Роб Полсен, Ліліана Мумі, Кевін Майкл Річардсон, Кевін МакДональд, Тресс МакНілл

Сюжет:
Маленька дівчинка Ліло, що живе на Гаваях, зустрічає чарівну, але дещо дивну собачку на ім'я Стіч. Не відаючи, що Стіч - насправді результат інопланетного генетичного експерименту, який до того ж ховається від влади своєї планети, дівчинка бере його додому...




Тривалість: 1 серія: 21:40 (цілком серій: 11)
Якість:

Відео: кодек: розмір кадру: 704 х 392 бітрейт: 850 кб/с
Аудіо: мова: українська переклад: професійний дубльований кодек: MP2 бітрейт: 192 кб/с
Джерело озвучення:

Додаткова інформація: Перелік серій складено згідно сайту IMDb.
Перелік серій
01. Richter 513
02. Phantasmo.375
04. Mr. Stenchy 254
06. Spooky 300
07. Cannonball 520
08. Yapper.007
09. Yin-Yang 501-502
10. Kixx 601
16. Sprout.509
20. The Asteroid
32. Poxy 222
Інформація про файл:

General
Unique ID : 178603284677453266598673026714560390156 (0x865DBDCD37B6932DB2E22499E890640C)
Complete name : D:\Torrents\Lilo and Stitch \Lilo and Stitch S01 \S01E04.Mr. Stenchy.254..
Format :
Format version : Version 2
File size : 199 MiB
Duration : 21mn 46s
Overall bit rate : 1 278 Kbps
Encoded date : UTC 2017-02-13 11:34:21
Writing application : mkvmerge v7.8.0 ('River Man') 32bit built on Apr 3 2015 12:11:22
Writing library : libebml v1.3.1 + libmatroska v1.4.2

Video
ID : 1
Format : AVC
Format/Info : Advanced Video Codec
Format profile : High@L3.1
Format settings, CABAC : Yes
Format settings, ReFrames : 10 frames
Codec ID : V_MPEG4/ISO/AVC
Duration : 21mn 46s
Bit rate : 1 060 Kbps
Width : 704 pixels
Height : 392 pixels
Display aspect ratio : 16:9
Frame rate mode : Constant
Frame rate : 25.000 fps
Color space : YUV
Chroma subsampling : 4:2:0
Bit depth : 8 bits
Scan type : Progressive
Bits/(Pixel*Frame) : 0.154
Stream size : 165 MiB (83%)
Writing library : core 146 r2538 121396c
Encoding settings : cabac=1 / ref=10 / deblock=1:0:0 / analyse=0x3:0x113 / me=umh / subme=9 / psy=1 / psy_rd=0.40:0.00 / mixed_ref=1 / me_range=16 / chroma_me=1 / trellis=2 / 8x8dct=1 / cqm=0 / deadzone=21,11 / fast_pskip=1 / chroma_qp_offset=-2 / threads=6 / lookahead_threads=1 / sliced_threads=0 / nr=0 / decimate=1 / interlaced=0 / bluray_compat=0 / constrained_intra=0 / bframes=5 / b_pyramid=2 / b_adapt=2 / b_bias=0 / direct=3 / weightb=1 / open_gop=0 / weightp=2 / keyint=250 / keyint_min=25 / scenecut=40 / intra_refresh=0 / rc_lookahead=50 / rc=crf / mbtree=1 / crf=19.0 / qcomp=0.70 / qpmin=0 / qpmax=69 / qpstep=4 / vbv_maxrate=14000 / vbv_bufsize=14000 / crf_max=0.0 / nal_hrd=none / filler=0 / ip_ratio=1.40 / aq=1:0.60
Default : Yes
Forced : No

Audio
ID : 2
Format : MPEG Audio
Format version : Version 1
Format profile : Layer 2
Codec ID : A_MPEG/L2
Codec ID/Hint : MP2
Duration : 21mn 46s
Bit rate mode : Constant
Bit rate : 192 Kbps
Channel(s) : 2 channels
Sampling rate : 48.0 KHz
Compression mode : Lossy
Stream size : 29.9 MiB (15%)
Default : Yes
Forced : No
Скріншоти:

Автор записів/ріпів: sergiyko


Бронзовий реліз (на рейтинг впливає 75% завантаженого)
 Трекер:    Зареєстрований   

Завантажити / скачати мультфільм українською



відео для новачків



 Зареєстрований:   2017-02-17 13:29
 Розмір:   1.8 GB 
 Оцінка мультсеріалу:   8.3/10 (Голосів: 6)
   
sergiyko.5 
VIP


З нами з: 25.02.16
Востаннє: 20.02.17
Повідомлень: 612

2017-02-14 10:22  
Додав 8 серію.
sergiyko.5 
VIP


З нами з: 25.02.16
Востаннє: 20.02.17
Повідомлень: 612

2017-02-17 13:23  
Додав 2,16 та 20 серії.
Ваш часовий пояс: GMT + 2 Години

Нова тема   Відповісти