Сноуден / Snowden (2016) Remux 1080p Ukr/Eng | Sub Eng

Нові коментарі

Нова тема   Відповісти
Останній раз роздавалося Black153 (2017-10-17)
Автор Повідомлення
staf777 
Відео Гуртом - підтримка та поширення
Відео Гуртом - підтримка та поширення


З нами з: 16.11.16
Востаннє: 11.09.17
Повідомлень: 522

2017-02-13 12:21  
Сноуден / Snowden (2016) Remux 1080p Ukr/Eng | Sub Eng

Інші постери





Жанр: біографічний, драма, трилер
Країна: США, Франція, Німеччина



Кінокомпанія: Endgame Entertainment, KrautPack Entertainment, Vendian Entertainment
Режисер: Олівер Стоун
Актори: Джозеф Гордон-Левітт, Шейлін Вудлі, Ніколас Кейдж, Закарі Куінто, Скотт Іствуд, Джоелі Річардсон, Том Вілкінсон, Різ Айфенс, Тімоті Оліфант, Мелісса Лео та інші

Сюжет:
Картина розповідає про колишнього агента ЦРУ Едварда Сноудена, який передав пресі безліч секретних документів, після чого змушений був тікати з США і після кількох переїздів провів три тижні в московському аеропорту.


Тривалість: 02:14:49
Якість: Remux 1080p
Відео:
кодек:
розмір кадру: 1920x1080
бітрейт: 30,8 Mб/с

Аудіо # 1:
мова: українська
переклад: професійний дубльований
кодек: 2.0
бітрейт: 192 кб/с
примітка: ця версія скорочена в порівнянні з , видалено приблизно три хвилини, а додано лише пару реплік. На місця без перекладу є форсовані субтитри

Аудіо # 2:
мова: англійська
переклад: оригінал
кодек: -HD MA 5.1
бітрейт: 3489 кб/с

Субтитри # 1: (форсовані)
мова: українська
тип: програмні (м'які)
формат: *.srt

Субтитри # 2:
мова: англійська
тип: пререндерні
формат: *.pgs
Info
General
Unique ID : 237284341607922878153383400628927562505 (0xB2834D483FE384A3ADC39506FB678309)
Complete name : P:\HD українською » Фільми в HD\Трилер\Snowden (2016) [Ukr,Eng sub.Eng] Remux 1080p [Hurtom].
Format :
Format version : Version 4 / Version 2
File size : 32.5 GiB
Duration : 2 h 14 min
Overall bit rate mode : Variable
Overall bit rate : 34.5 Mb/s
Movie name : Snowden (2016) [Ukr,Eng sub.Eng] Remux 1080p [Hurtom]
Encoded date : UTC 2017-02-13 09:30:40
Writing application : mkvmerge v9.8.0 ('Kuglblids') 64bit
Writing library : libebml v1.3.4 + libmatroska v1.4.5

Video
ID : 1
Format : AVC
Format/Info : Advanced Video Codec
Format profile : [email protected]
Format settings, CABAC : Yes
Format settings, ReFrames : 4 frames
Format settings, GOP : M=3, N=12
Codec ID : V_MPEG4/ISO/AVC
Duration : 2 h 14 min
Bit rate mode : Variable
Bit rate : 30.8 Mb/s
Maximum bit rate : 36.0 Mb/s
Width : 1 920 pixels
Height : 1 080 pixels
Display aspect ratio : 16:9
Frame rate mode : Constant
Frame rate : 23.976 (24000/1001) FPS
Color space : YUV
Chroma subsampling : 4:2:0
Bit depth : 8 bits
Scan type : Progressive
Bits/(Pixel*Frame) : 0.620
Stream size : 29.0 GiB (89%)
Default : Yes
Forced : No

Audio #1
ID : 2
Format : AC-3
Format/Info : Audio Coding 3
Mode extension : CM (complete main)
Format settings, Endianness : Big
Codec ID : A_AC3
Duration : 2 h 14 min
Bit rate mode : Constant
Bit rate : 192 kb/s
Channel(s) : 2 channels
Channel positions : Front: L R
Sampling rate : 48.0 kHz
Frame rate : 31.250 FPS (1536 spf)
Bit depth : 16 bits
Compression mode : Lossy
Stream size : 185 MiB (1%)
Language : Ukrainian
Default : Yes
Forced : Yes

Audio #2
ID : 3
Format :
Format/Info : Digital Theater Systems
Format profile : MA / Core
Mode : 16
Format settings, Endianness : Big
Codec ID : A_DTS
Duration : 2 h 14 min
Bit rate mode : Variable / Constant
Bit rate : 3 489 kb/s / 1 509 kb/s
Channel(s) : 6 channels
Channel positions : Front: L C R, Side: L R, LFE
Sampling rate : 48.0 kHz
Frame rate : 93.750 FPS (512 spf)
Bit depth : 24 bits
Compression mode : Lossless / Lossy
Stream size : 3.29 GiB (10%)
Language : English
Default : No
Forced : No

Text #1
ID : 4
Format : UTF-8
Codec ID : S_TEXT/UTF8
Codec ID/Info : UTF-8 Plain Text
Duration : 1 h 34 min
Bit rate : 0 b/s
Count of elements : 8
Stream size : 459 Bytes (0%)
Language : Ukrainian
Default : Yes
Forced : Yes

Text #2
ID : 5
Format : PGS
Muxing mode : zlib
Codec ID : S_HDMV/PGS
Codec ID/Info : Picture based subtitle format used on BDs/HD-DVDs
Duration : 2 h 9 min
Bit rate : 16.9 kb/s
Count of elements : 4357
Stream size : 15.7 MiB (0%)
Language : English
Default : No
Forced : No
Скріншоти



За українську доріжку подяка пану AngryBirdsUA, за синхронізацію та субтитри - пану Demrandir
Джерело: &


Золотий реліз (завантажене не впливає на рейтинг)
 Трекер:    Зареєстрований   

Завантажити / скачати фільм українською



відео для новачків



 Зареєстрований:   2017-02-13 13:51
 Розмір:   32.52 GB 
 Оцінка фільму:   6.1/10 (Голосів: 7)
   
Інші релізи
   Сноуден / Snowden (2016) 1080p Ukr/Eng│Sub Eng Electroz  3 / 0   15.34 GB   2017-02-13 11:35 
   Сноуден / Snowden (2016) 720p Ukr/Eng | Sub Eng 11FrYkT  7 / 4   7.95 GB   2017-02-12 21:16 
   Сноуден / Snowden (2016) [2.0 ] Український дубляж + вставки оригіналу Demrandir  0 / 0   185 MB   2017-02-12 18:47 
   Сноуден / Snowden (2016) 1080p Electroz  3 / 0   3.9 GB   2017-02-12 13:32 
   Сноуден / Snowden (2016) AngryBirdsUA  32 / 2   1.46 GB   2016-12-25 11:57 
Uberwinder 
Свій


З нами з: 18.11.16
Востаннє: 17.10.17
Повідомлень: 138

2017-04-12 07:13  
Дякую, фільм сподобався!
Ваш часовий пояс: GMT + 2 Години

Нова тема   Відповісти