Цикл обезголовлення / Kubikiri Cycle: Aoiro Savant to Zaregototsukai / クビキリサイクル 青色サヴァンと戯言遣い [1-4 з 12] (2016-2017) 1080p Jpn | sub Ukr

Нові коментарі

Нова тема   Відповісти
Останній раз роздавалося Gedet (2017-08-19)
Автор Повідомлення
Gedet 
Відео Гуртом - субтитрування
Відео Гуртом - субтитрування


З нами з: 17.11.11
Востаннє: 17.05.17
Повідомлень: 1798

2017-02-13 00:43  
Цикл обезголовлення / Kubikiri Cycle: Aoiro Savant to Zaregototsukai / クビキリサイクル 青色サヴァンと戯言遣い [1-4 з 12] (2016-2017) 1080p Jpn | sub Ukr

Цикл обезголовлення / Kubikiri Cycle: Aoiro Savant to Zaregototsukai / クビキリサイクル 青色サヴァンと戯言遣い [1-4 з 12] (2016-2017) 1080p Jpn | sub Ukr


Жанр: Пригоди, драма, надприродне, детектив
Країна: Японія



Кінокомпанія: Шафт
Режисер: Акіюкі Шінбо
Актори: Юкі Каджі, Аой Юкі, Юко Кайда, Ая Ендо

Сюжет:
Історія розгортається довкола героя, який просто називає себе "Я". Таємничий острів, зібрання найбільший у світі геніїв... Але ось одного з них убивають за нез'ясованих обставин. І вбивство це тут не перше. Це цикл, який триває роками.


Тривалість: 00:25:00
Якість:
Відео:
кодек:
розмір кадру: 1920х1080
бітрейт: 7000 кб/с

Аудіо:
мова: японська
переклад: оригінал
кодек: FLAC 2ch
бітрейт: 1380 кб/с

Субтитри:
мова: українська
тип: програмні (м'які)
формат: *.ass
переклад: власний
Перелік томів
Том 1 День 3 (1) Зібрання савантів
Том 2 День 3 (2) Зібрання й арифметика
Том 3 День 4 (1) Обезголовлення перше
Том 4 День 4 (2) Трагедія 0,14
Info
General
Unique ID : 222508055074393834763078397034145978849 (0xA7657E1BEB53E8FCBA008D36110319E1)
Complete name : K:\Цикл обезголовлення_1080\Kubikiri Cycle ~Aoiro Savant to Zaregoto Tsukai~ 01 ( 1920x1080 FLAC).
Format :
Format version : Version 4 / Version 2
File size : 1.62 GiB
Duration : 27 min 9 s
Overall bit rate mode : Variable
Overall bit rate : 8 538 kb/s
Encoded date : UTC 2016-11-16 07:33:02
Writing application : mkvmerge v9.5.0 ('Quiet Fire') 64bit
Writing library : libebml v1.3.4 + libmatroska v1.4.5

Video
ID : 1
Format : AVC
Format/Info : Advanced Video Codec
Format profile : [email protected]
Format settings, CABAC : Yes
Format settings, ReFrames : 4 frames
Codec ID : V_MPEG4/ISO/AVC
Duration : 27 min 9 s
Bit rate : 7 162 kb/s
Width : 1 920 pixels
Height : 1 080 pixels
Display aspect ratio : 16:9
Frame rate mode : Constant
Frame rate : 23.976 (24000/1001) FPS
Color space : YUV
Chroma subsampling : 4:2:0
Bit depth : 8 bits
Scan type : Progressive
Bits/(Pixel*Frame) : 0.144
Stream size : 1.36 GiB (84%)
Writing library : core 148
Encoding settings : opencl=1 / cabac=1 / ref=4 / deblock=1:-2:-2 / analyse=0x3:0x113 / me=umh / subme=9 / psy=1 / psy_rd=0.70:0.00 / mixed_ref=0 / me_range=32 / chroma_me=1 / trellis=2 / 8x8dct=1 / cqm=0 / deadzone=21,11 / fast_pskip=1 / chroma_qp_offset=-2 / threads=8 / lookahead_threads=1 / sliced_threads=0 / nr=0 / decimate=1 / interlaced=0 / bluray_compat=0 / constrained_intra=0 / bframes=9 / b_pyramid=2 / b_adapt=2 / b_bias=0 / direct=3 / weightb=1 / open_gop=0 / weightp=2 / keyint=250 / keyint_min=23 / scenecut=40 / intra_refresh=0 / rc_lookahead=40 / rc=crf / mbtree=1 / crf=16.0 / qcomp=0.70 / qpmin=10 / qpmax=20 / qpstep=4 / ip_ratio=1.40 / aq=1:1.00
Default : Yes
Forced : No

Audio
ID : 2
Format : FLAC
Format/Info : Free Lossless Audio Codec
Codec ID : A_FLAC
Duration : 27 min 9 s
Bit rate mode : Variable
Bit rate : 1 374 kb/s
Channel(s) : 2 channels
Channel positions : Front: L R
Sampling rate : 48.0 kHz
Frame rate : 10.417 FPS (4608 spf)
Bit depth : 24 bits
Stream size : 267 MiB (16%)
Writing library : Lavf56.40.101
Language : Japanese
Default : Yes
Forced : No
Скріншоти







Особиста оцінка: 8 - мені сподобалося


Золотий реліз (завантажене не впливає на рейтинг)
 Трекер:    Зареєстрований   

Завантажити / скачати аніме українською



відео для новачків



 Зареєстрований:   2017-02-26 21:59
 Розмір:   5.63 GB 
 Оцінка аніме:   5.5/10 (Голосів: 2)
   
Gedet 
Відео Гуртом - субтитрування
Відео Гуртом - субтитрування


З нами з: 17.11.11
Востаннє: 17.05.17
Повідомлень: 1798

2017-02-26 21:59  
Новенька. Гарного перегляду.
Ваш часовий пояс: GMT + 2 Години

Нова тема   Відповісти