Березневий лев / 3月のライオン / Sangatsu no Lion [1 сезон] (2016-2017) Jpn | sub Ukr

Нові коментарі

Нова тема   Відповісти
Останній раз роздавалося Gedet (2017-03-28)
Автор Повідомлення
Gedet 
Відео Гуртом - субтитрування
Відео Гуртом - субтитрування


З нами з: 17.11.11
Востаннє: 27.03.17
Повідомлень: 1768

2017-02-12 16:20  
Березневий лев / 3月のライオン / Sangatsu no Lion

Березневий лев / 3月のライオン / Sangatsu no Lion [1 сезон] (2016-2017) Jpn | sub Ukr


Жанр: насітльні ігри, буденність, романтика, драма, сейнен
Країна: Японія



Кінокомпанія: Шафт
Режисер: Акіюкі Шінбо
Актори: Кенґо Каваніші, Юмі Учіяма, Ай Каяно, Місакі Куно, Кана Ханазава

Сюжет:
У центрі сюжету знаходиться Кіріяма Рей, який є п'ятим в історії гравцем шьоґі, що став професіоналом у середній школі. На його юні плечі ліг непомірний тягар. Адже світ професійного шьоґі суворий, а підтримки немає, бо рідні батьки померли ще у юному віці. Друг його батька став для нього названим. Він прийняв його у свою родину, але це зруйнувало її. Він змушений був переїхати, і у новому світі Березневого району його рятують три сестри Кавамото, що живуть неподалік.
Перелік серій
1. Кіріяма Рей. Місто коло річки
2. Місто коло річки (продовження). Акарі. За мостом.
3. Харунобу. За нічним небом.
4. Хіна. Ві.Ес..
5. Договір. Над гніздом зозулі.
6. Дитя Боже (частина перша). Дитя Боже (частина друга). Дитя Боже (частина третя).
7. Дитя Боже (частина третя) Продовження. Важливе. Важливий.. Навчи мене грати у шьоґі.
8. Навчи мене грати у шьоґі (продовження). Образ. Шторм удалині (частина 1).
9. Шторм удалині (частина 2). Шторм удалині (частина 3).
10. Дароване (частина 1). Дароване (частина 2).
11. Старий рік. Новий рік.
12. На протилежному березі. Чорна ріка (частина 1).
13. Чорна ріка (частина 2). За дверима.
14. Сліпуча темрява. Лиш трохи води.
15. Місячне сяйво. Грудка пихи.
16. Біжучи крізь ніч. На схилі.
17. Срібна нитка. Поверхня води.
18. Стрімкий потік. Час тече.
19. Перебути ніч. Кьото (частина 1).
20. Кьото (частина 2). Кьото (частина 3).
21. Коли квітне вишні цвіт. Тихий шепіт.
22. Новий триместр. Боєць.
Тривалість: 00:25:00
Якість:
Відео:
кодек:
розмір кадру: 1920х1080
бітрейт: 3000 кб/с

Аудіо:
мова: японська
переклад: оригінал
кодек: 2.0
бітрейт: 192 кб/с

Субтитри:
мова: українська
тип: програмні (м'які)
формат: *.ass
переклад: власний
Info
General
Unique ID : 214121983905418927575439564224204450927 (0xA11664E0D251F6269678C34228A92C6F)
Complete name : K:\Березневий_Лев_1080\3-gatsu no Lion - 01.
Format :
Format version : Version 4 / Version 2
File size : 571 MiB
Duration : 25 min 0 s
Overall bit rate : 3 194 kb/s
Encoded date : UTC 2017-01-10 17:43:49
Writing application : mkvmerge v9.7.1 ('Pandemonium') 64bit
Writing library : libebml v1.3.4 + libmatroska v1.4.5

Video
ID : 1
Format : AVC
Format/Info : Advanced Video Codec
Format profile : [email protected]
Format settings, CABAC : Yes
Format settings, ReFrames : 4 frames
Codec ID : V_MPEG4/ISO/AVC
Duration : 25 min 0 s
Bit rate : 3 072 kb/s
Width : 1 920 pixels
Height : 1 080 pixels
Display aspect ratio : 16:9
Frame rate mode : Variable
Frame rate : 23.976 (23976/1000) FPS
Color space : YUV
Chroma subsampling : 4:2:0
Bit depth : 8 bits
Scan type : Progressive
Bits/(Pixel*Frame) : 0.062
Stream size : 548 MiB (96%)
Writing library : core 120 r2120 0c7dab9
Encoding settings : cabac=1 / ref=4 / deblock=1:1:1 / analyse=0x3:0x113 / me=umh / subme=8 / psy=1 / psy_rd=0.40:0.00 / mixed_ref=1 / me_range=16 / chroma_me=1 / trellis=1 / 8x8dct=1 / cqm=0 / deadzone=21,11 / fast_pskip=1 / chroma_qp_offset=-2 / threads=8 / sliced_threads=0 / nr=0 / decimate=1 / interlaced=0 / bluray_compat=0 / constrained_intra=0 / bframes=3 / b_pyramid=2 / b_adapt=2 / b_bias=0 / direct=3 / weightb=1 / open_gop=0 / weightp=2 / keyint=250 / keyint_min=23 / scenecut=40 / intra_refresh=0 / rc_lookahead=50 / rc=2pass / mbtree=1 / bitrate=3072 / ratetol=1.0 / qcomp=0.60 / qpmin=0 / qpmax=69 / qpstep=4 / cplxblur=20.0 / qblur=0.5 / vbv_maxrate=6144 / vbv_bufsize=15360 / nal_hrd=none / ip_ratio=1.40 / aq=1:0.60
Default : Yes
Forced : No

Audio
ID : 2
Format :
Format/Info : Advanced Audio Codec
Format profile : LC
Codec ID : A_AAC
Duration : 25 min 0 s
Bit rate : 128 kb/s
Channel(s) : 2 channels
Channel positions : Front: L R
Sampling rate : 44.1 kHz
Frame rate : 43.066 FPS (1024 spf)
Compression mode : Lossy
Stream size : 22.9 MiB (4%)
Language : Japanese
Default : Yes
Forced : No
Скріншоти




Особиста оцінка: 9 - давно не бачив настільки якісне кіно


Золотий реліз (завантажене не впливає на рейтинг)
 Трекер:    Зареєстрований   

Завантажити / скачати аніме українською



відео для новачків



 Зареєстрований:   2017-03-20 02:28
 Розмір:   12.07 GB 
 Оцінка аніме:   9.5/10 (Голосів: 2)
   
Gedet 
Відео Гуртом - субтитрування
Відео Гуртом - субтитрування


З нами з: 17.11.11
Востаннє: 27.03.17
Повідомлень: 1768

2017-02-20 17:28  
Нова серія.
Gedet 
Відео Гуртом - субтитрування
Відео Гуртом - субтитрування


З нами з: 17.11.11
Востаннє: 27.03.17
Повідомлень: 1768

2017-02-28 13:51  
Нова серія.
Gedet 
Відео Гуртом - субтитрування
Відео Гуртом - субтитрування


З нами з: 17.11.11
Востаннє: 27.03.17
Повідомлень: 1768

2017-03-05 21:22  
Нова серія
Gedet 
Відео Гуртом - субтитрування
Відео Гуртом - субтитрування


З нами з: 17.11.11
Востаннє: 27.03.17
Повідомлень: 1768

2017-03-20 02:27  
Кінець сезону.
ImfromUkraine 
VIP


З нами з: 18.02.12
Востаннє: 27.03.17
Повідомлень: 270

2017-03-20 18:00  
На його юні плечі ляг непомірний тягар. Адже свій професійного шьоґі суворий
щось там не те) за переклад дякую)

Gedet 
Відео Гуртом - субтитрування
Відео Гуртом - субтитрування


З нами з: 17.11.11
Востаннє: 27.03.17
Повідомлень: 1768

2017-03-20 19:33  
Дякую За виправлення. Буде виправлено.Happy
Ваш часовий пояс: GMT + 2 Години

Нова тема   Відповісти