Снігова людина / Strange Wilderness (2008) Remux 1080p Ukr/Eng | Sub Eng

Нові коментарі

Нова тема   Відповісти
Автор Повідомлення
staf777 
Відео Гуртом - підтримка та поширення
Відео Гуртом - підтримка та поширення


З нами з: 16.11.16
Востаннє: 22.10.17
Повідомлень: 522

2017-02-12 13:24  
Снігова людина / Strange Wilderness (2008) Remux 1080p Ukr/Eng | Sub Eng

Снігова людина / Strange Wilderness (2008) Remux 1080p Ukr/Eng | Sub Eng


Жанр: комедія
Країна: США



Кінокомпанія: Pelican Productions LLC (I), Happy Madison Productions, Level 1 Entertainment
Режисер: Фред Вульф / Fred Wolf
Актори: Стів Зан / Steve Zahn, Аллен Коверт / Allen Covert, Джона Гілл / Jonah Hill, Кевін Геффернан / Kevin Heffernan, Ешлі Скотт / Ashley Scott, Пітер Данте / Peter Dante, Гаррі Гемлін / Harry Hamlin та інші

Сюжет:
З метою підняти рейтинг телешоу «Дивовижна дика природа», двоє дивакуватих ентузіастів відправляються в гірський район Південної Америки на пошуки снігової людини...


Тривалість: 01:24:57
Якість: Remux 1080p
Відео:
кодек:
розмір кадру: 1920x1080
бітрейт: 23487 кб/с

Аудіо # 1:
мова: українська
переклад: багатоголосий закадровий
кодек: 2.0
бітрейт: 192 кб/с

Аудіо # 2:
мова: англійська
переклад: оригінал
кодек: -HD HR 5.1
бітрейт: 3141 кб/с

Аудіо # 3:
мова: англійська
переклад: оригінал
кодек: 5.1
бітрейт: 640 кб/с

Субтитри #1-2:
мова: англійська
тип: пререндерні
формат: PGS
Info
General
Unique ID : 198148935194637757854773951384948022974 (0x951218C62DF6A50282A9AA4400F79EBE)
Complete name : P:\HDClub\STRANGE_WILDERNESS_2008_REMUX_HDCLUB\BDMV\STREAM\ Strange Wilderness (2008) [Ukr,Eng sub.Eng] Remux 1080p [Hurtom].
Format :
Format version : Version 4 / Version 2
File size : 16.3 GiB
Duration : 1 h 24 min
Overall bit rate mode : Variable
Overall bit rate : 27.5 Mb/s
Movie name : Strange Wilderness (2008) [Ukr,Eng sub.Eng] Remux 1080p [Hurtom]
Encoded date : UTC 2017-02-12 11:59:53
Writing application : mkvmerge v9.8.0 ('Kuglblids') 64bit
Writing library : libebml v1.3.4 + libmatroska v1.4.5

Video
ID : 1
Format : AVC
Format/Info : Advanced Video Codec
Format profile : [email protected]
Format settings, CABAC : Yes
Format settings, ReFrames : 4 frames
Codec ID : V_MPEG4/ISO/AVC
Duration : 1 h 24 min
Bit rate mode : Variable
Bit rate : 23.4 Mb/s
Maximum bit rate : 40.0 Mb/s
Width : 1 920 pixels
Height : 1 080 pixels
Display aspect ratio : 16:9
Frame rate mode : Constant
Frame rate : 23.976 (24000/1001) FPS
Color space : YUV
Chroma subsampling : 4:2:0
Bit depth : 8 bits
Scan type : Progressive
Bits/(Pixel*Frame) : 0.471
Stream size : 13.9 GiB (85%)
Default : Yes
Forced : No
Color range : Limited
Color primaries : BT.709
Transfer characteristics : BT.709
Matrix coefficients : BT.709

Audio #1
ID : 2
Format : AC-3
Format/Info : Audio Coding 3
Mode extension : CM (complete main)
Format settings, Endianness : Big
Codec ID : A_AC3
Duration : 1 h 24 min
Bit rate mode : Constant
Bit rate : 192 kb/s
Channel(s) : 2 channels
Channel positions : Front: L R
Sampling rate : 48.0 kHz
Frame rate : 31.250 FPS (1536 spf)
Bit depth : 16 bits
Compression mode : Lossy
Stream size : 117 MiB (1%)
Language : Ukrainian
Default : Yes
Forced : Yes

Audio #2
ID : 3
Format : TrueHD
Codec ID : A_TRUEHD
Duration : 1 h 24 min
Bit rate mode : Variable
Bit rate : 3 141 kb/s
Maximum bit rate : 5 049 kb/s
Channel(s) : 6 channels
Channel positions : Front: L C R, Side: L R, LFE
Sampling rate : 48.0 kHz
Frame rate : 1 200.000 FPS (40 spf)
Compression mode : Lossless
Stream size : 1.86 GiB (11%)
Language : English
Default : No
Forced : No

Audio #3
ID : 4
Format : AC-3
Format/Info : Audio Coding 3
Mode extension : CM (complete main)
Format settings, Endianness : Big
Codec ID : A_AC3
Duration : 1 h 24 min
Bit rate mode : Constant
Bit rate : 640 kb/s
Channel(s) : 6 channels
Channel positions : Front: L C R, Side: L R, LFE
Sampling rate : 48.0 kHz
Frame rate : 31.250 FPS (1536 spf)
Bit depth : 16 bits
Compression mode : Lossy
Stream size : 389 MiB (2%)
Language : English
Default : No
Forced : No

Text #1
ID : 5
Format : PGS
Muxing mode : zlib
Codec ID : S_HDMV/PGS
Codec ID/Info : Picture based subtitle format used on BDs/HD-DVDs
Duration : 1 h 18 min
Bit rate : 16.2 kb/s
Count of elements : 2648
Stream size : 9.07 MiB (0%)
Language : English
Default : No
Forced : No

Text #2
ID : 6
Format : PGS
Muxing mode : zlib
Codec ID : S_HDMV/PGS
Codec ID/Info : Picture based subtitle format used on BDs/HD-DVDs
Duration : 1 h 18 min
Bit rate : 18.2 kb/s
Count of elements : 2978
Stream size : 10.2 MiB (0%)
Language : English
Default : No
Forced : No
Скріншоти



Запис з ТБ: POMEO
Синхронізація : patriot2305

Джерело: &


Золотий реліз (завантажене не впливає на рейтинг)
 Трекер:    Зареєстрований   

Завантажити / скачати фільм українською



відео для новачків



 Зареєстрований:   2017-02-12 15:53
 Розмір:   16.31 GB 
 Оцінка фільму:   8.2/10 (Голосів: 6)
   
Інші релізи
   Снігова людина / Strange Wilderness (2008) patriot2305  2 / 0   1.31 GB   2014-06-30 18:55 
Ваш часовий пояс: GMT + 2 Години

Нова тема   Відповісти