Супер Бугай / Super Rhino (2009) Remux 1080p Ukr/Eng | Sub Eng

Нові коментарі

Нова тема   Відповісти
Автор Повідомлення
staf777 
Відео Гуртом - підтримка та поширення
Відео Гуртом - підтримка та поширення


З нами з: 16.11.16
Востаннє: 22.01.21
Повідомлень: 4817

2017-02-12 04:04  
Супер Бугай / Super Rhino (2009) Remux 1080p Ukr/Eng | Sub Eng

Супер Бугай / Super Rhino (2009) Remux 1080p Ukr/Eng | Sub Eng


Жанр: короткометражний, анімація, фантастика, сімейний, комедія
Країна: США



Кінокомпанія: Walt Disney Animation Studios
Режисер: Байрон Говард, Кріс Вільямс
Актори: Марк Волтон / Mark Walton, Френк Велкер / Frank Welker, Майлі Сайрус / Miley Cyrus, Сьюзі Ессман / Susie Essman, Малкольм Макдавел / Malcolm McDowell та інші

Сюжет:
Короткометражка про супер хом'яка на ймення Бугай з мультфільму Вольт / Bolt (2008)


Тривалість: 00:04:27
Якість: Remux 1080p
Відео:
кодек:
розмір кадру: 1920x1080
бітрейт: 23,2 Mб/с

Аудіо # 1:
мова: українська
переклад: професійний дубльований
ролі дублювали: Вольт - Остап Ступка, Маркіза - Ірма Вітовська
кодек: 5.1
бітрейт: 384 кб/с

Аудіо # 2:
мова: англійська
переклад: оригінал
кодек: 5.1
бітрейт: 640 кб/с

Джерело озвучення:


Субтитри:
мова: англійська
тип: пререндерні
формат: *.pgs
Info
General
Unique ID : 211625525678940255069471745316253872245 (0x9F3597FC145249C18ABCB13B5B183075)
Complete name : P:\HD українською » Мультфільми в HD\Super Rhino (2009) [Ukr,Eng sub.Eng] Remux 1080p [Hurtom].
Format :
Format version : Version 4 / Version 2
File size : 787 MiB
Duration : 4mn 27s
Overall bit rate mode : Variable
Overall bit rate : 24.7 Mbps
Movie name : Super Rhino (2009) [Ukr,Eng sub.Eng] Remux 1080p [Hurtom]
Encoded date : UTC 2017-02-12 01:32:01
Writing application : v9.8.0 ('Kuglblids') 64bit
Writing library : libebml v1.3.4 + v1.4.5
DURATION : 00:00:01.001000000
NUMBER_OF_FRAMES : 2
NUMBER_OF_BYTES : 3595
_STATISTICS_WRITING_APP : v9.8.0 ('Kuglblids') 64bit
_STATISTICS_WRITING_DATE_UTC : 2017-02-12 01:32:01
_STATISTICS_TAGS : BPS DURATION NUMBER_OF_FRAMES NUMBER_OF_BYTES

Video
ID : 1
Format : AVC
Format/Info : Advanced Video Codec
Format profile : [email protected]
Format settings, CABAC : Yes
Format settings, ReFrames : 4 frames
Codec ID : V_MPEG4/ISO/AVC
Duration : 4mn 27s
Bit rate mode : Variable
Bit rate : 23.2 Mbps
Maximum bit rate : 40.0 Mbps
Width : 1 920 pixels
Height : 1 080 pixels
Display aspect ratio : 16:9
Frame rate mode : Constant
Frame rate : 23.976 fps
Color space : YUV
Chroma subsampling : 4:2:0
Bit depth : 8 bits
Scan type : Progressive
Bits/(Pixel*Frame) : 0.466
Stream size : 739 MiB (94%)
Default : Yes
Forced : No
Color range : Limited
Color primaries : BT.709
Transfer characteristics : BT.709
Matrix coefficients : BT.709

Audio #1
ID : 2
Format : AC-3
Format/Info : Audio Coding 3
Mode extension : CM (complete main)
Format settings, Endianness : Big
Codec ID : A_AC3
Duration : 4mn 27s
Bit rate mode : Constant
Bit rate : 384 Kbps
Channel(s) : 6 channels
Channel positions : Front: L C R, Side: L R, LFE
Sampling rate : 48.0 KHz
Bit depth : 16 bits
Compression mode : Lossy
Stream size : 12.3 MiB (2%)
Language : Ukrainian
Default : Yes
Forced : Yes

Audio #2
ID : 3
Format : AC-3
Format/Info : Audio Coding 3
Mode extension : CM (complete main)
Format settings, Endianness : Big
Codec ID : A_AC3
Duration : 4mn 27s
Bit rate mode : Constant
Bit rate : 640 Kbps
Channel(s) : 6 channels
Channel positions : Front: L C R, Side: L R, LFE
Sampling rate : 48.0 KHz
Bit depth : 16 bits
Compression mode : Lossy
Stream size : 20.4 MiB (3%)
Language : English
Default : No
Forced : No

Text
ID : 4
Format : PGS
Muxing mode : zlib
Codec ID : S_HDMV/PGS
Codec ID/Info : Picture based subtitle format used on BDs/HD-DVDs
Language : English
Default : No
Forced : No
Скріншоти



Джерело: &



Золотий реліз (завантажене не впливає на рейтинг)
 Трекер:    Зареєстрований   

Завантажити / скачати фільм українською



відео для новачків



 Зареєстрований:   2017-02-12 04:04
 Розмір:   787 MB 
 Оцінка фільму:   8.6/10 (Голосів: 7)
   
bot 
робот


З нами з: 30.09.07
Востаннє: 26.05.05
Повідомлень: 26958

2017-02-12 09:50  
Тему перенесено з Мультфільми в HD до форуму Короткометражні


igor911

olimpian1 
VIP


З нами з: 19.10.13
Востаннє: 21.01.21
Повідомлень: 293

2017-02-12 11:30  
Файно, але малоHappy)
Ваш часовий пояс: GMT + 2 Години

Нова тема   Відповісти