Бар Поркі / Porky's (1981) 720p Ukr/Eng | Sub Eng

Нові коментарі

Нова тема   Відповісти
Автор Повідомлення
Aradesh 
VIP


З нами з: 14.11.07
Востаннє: 14.12.17
Повідомлень: 556

2017-02-11 16:01  
Бар Поркі / Porky's (1981) 720p Ukr/Eng | Sub Eng

Бар Поркі / Porky's (1981) 720p Ukr/Eng | Sub Eng


Жанр: комедія
Країна: Канада, США



Кінокомпанія: Melvin Simon Productions, Astral Bellevue Pathé
Режисер: Боб Кларк
Актори: Ден Монаген, Марк Геррієр, Вайт Найт, Роджер Вілсон, Сиріл О'Райлі, Тоні Ґеніос, Кейкі Гантер, Ненсі Парсонс, Скот Коломбі

Сюжет:
Молодіжна комедія, дія якої відбувається в 1954 році на півдні Флориди. Школярі тільки що відкрили для себе секс і вирішили, що це добре. Так що повеселитися вони люблять. Все це досить вульгарно, але багатьом саме це і подобається.


Тривалість: 01:38:27
Якість: 720p
Відео:
кодек:
розмір кадру: 1 280 х 688
бітрейт: 5 586 кб/с

Аудіо # 1:
мова: українська
переклад: двоголосий закадровий
кодек: 2.0
бітрейт: 224 кб/с

Аудіо # 2:
мова: англійська
переклад: оригінал
кодек: 1.0
бітрейт: 768 кб/с

Джерело озвучення:


Субтитри:
мова: англійська
тип: програмні (м'які)
формат: *.srt
Info
General
Unique ID : 250723316271375701884918945592816986374 (0xBC9F8DE3BDDB0B3685E18BEBEC346906)
Complete name : Porky's (1982) [Ukr,Eng] [Hurtom].
Format :
Format version : Version 4 / Version 2
File size : 4.52 GiB
Duration : 1 h 38 min
Overall bit rate : 6 577 kb/s
Encoded date : UTC 2017-02-11 11:43:10
Writing application : mkvmerge v9.8.0 ('Kuglblids') 64bit
Writing library : libebml v1.3.4 + libmatroska v1.4.5

Video
ID : 1
Format : AVC
Format/Info : Advanced Video Codec
Format profile : [email protected]
Format settings, CABAC : Yes
Format settings, ReFrames : 5 frames
Codec ID : V_MPEG4/ISO/AVC
Duration : 1 h 38 min
Bit rate : 5 586 kb/s
Width : 1 280 pixels
Height : 688 pixels
Display aspect ratio : 1.85:1
Frame rate mode : Constant
Frame rate : 23.976 (24000/1001) FPS
Color space : YUV
Chroma subsampling : 4:2:0
Bit depth : 8 bits
Scan type : Progressive
Bits/(Pixel*Frame) : 0.265
Stream size : 3.84 GiB (85%)
Title : porkys.1982.720p.bluray.-psychd
Writing library : core 128 r2216 198a7ea
Encoding settings : cabac=1 / ref=5 / deblock=1:0:0 / analyse=0x3:0x113 / me=umh / subme=8 / psy=1 / psy_rd=1.00:0.00 / mixed_ref=1 / me_range=16 / chroma_me=1 / trellis=1 / 8x8dct=1 / cqm=0 / deadzone=21,11 / fast_pskip=1 / chroma_qp_offset=-2 / threads=12 / lookahead_threads=2 / sliced_threads=0 / nr=0 / decimate=1 / interlaced=0 / bluray_compat=0 / constrained_intra=0 / bframes=3 / b_pyramid=2 / b_adapt=2 / b_bias=0 / direct=3 / weightb=1 / open_gop=0 / weightp=2 / keyint=240 / keyint_min=24 / scenecut=40 / intra_refresh=0 / rc_lookahead=50 / rc=2pass / mbtree=1 / bitrate=5586 / ratetol=1.0 / qcomp=0.60 / qpmin=0 / qpmax=69 / qpstep=4 / cplxblur=20.0 / qblur=0.5 / ip_ratio=1.40 / aq=1:1.00
Default : No
Forced : No

Audio #1
ID : 2
Format : AC-3
Format/Info : Audio Coding 3
Mode extension : CM (complete main)
Format settings, Endianness : Big
Codec ID : A_AC3
Duration : 1 h 38 min
Bit rate mode : Constant
Bit rate : 224 kb/s
Channel(s) : 2 channels
Channel positions : Front: L R
Sampling rate : 48.0 kHz
Frame rate : 31.250 FPS (1536 spf)
Bit depth : 16 bits
Compression mode : Lossy
Stream size : 158 MiB (3%)
Title : Ukrainian 1+1
Language : Ukrainian
Default : Yes
Forced : No

Audio #2
ID : 3
Format :
Format/Info : Digital Theater Systems
Mode : 16
Format settings, Endianness : Big
Codec ID : A_DTS
Duration : 1 h 38 min
Bit rate mode : Constant
Bit rate : 768 kb/s
Channel(s) : 1 channel
Channel positions : Front: C
Sampling rate : 48.0 kHz
Frame rate : 93.750 FPS (512 spf)
Bit depth : 24 bits
Compression mode : Lossy
Stream size : 541 MiB (12%)
Title : Original 1.0 768 kbps
Language : English
Default : No
Forced : No

Text
ID : 4
Format : UTF-8
Codec ID : S_TEXT/UTF8
Codec ID/Info : UTF-8 Plain Text
Duration : 1 h 38 min
Bit rate : 73 b/s
Count of elements : 1824
Stream size : 53.0 KiB (0%)
Language : English
Default : No
Forced : No

Menu
00:00:00.000 : en:00:00:00.000
00:04:04.995 : en:00:04:04.995
00:08:30.552 : en:00:08:30.552
00:10:36.261 : en:00:10:36.261
00:14:40.505 : en:00:14:40.505
00:18:37.450 : en:00:18:37.450
00:21:56.565 : en:00:21:56.565
00:25:25.566 : en:00:25:25.566
00:26:51.193 : en:00:26:51.193
00:30:15.522 : en:00:30:15.522
00:36:36.986 : en:00:36:36.986
00:39:01.589 : en:00:39:01.589
00:41:52.719 : en:00:41:52.719
00:44:22.201 : en:00:44:22.201
00:48:47.133 : en:00:48:47.133
00:50:30.819 : en:00:50:30.819
00:53:31.792 : en:00:53:31.792
00:55:58.063 : en:00:55:58.063
00:57:23.023 : en:00:57:23.023
01:02:37.128 : en:01:02:37.128
01:07:12.737 : en:01:07:12.737
01:12:01.609 : en:01:12:01.609
01:16:19.241 : en:01:16:19.241
01:19:25.886 : en:01:19:25.886
01:24:34.194 : en:01:24:34.194
01:27:36.543 : en:01:27:36.543
01:30:51.696 : en:01:30:51.696
01:34:49.017 : en:01:34:49.017
Скріншоти
Джерело: &
Особиста оцінка: 0 - не дивився

Подяка sasha20072007 за звукову доріжку до -у


Срібний реліз (на рейтинг впливає 50% завантаженого)
 Трекер:    Зареєстрований   

Завантажити / скачати фільм українською



відео для новачків



 Зареєстрований:   2017-02-11 16:01
 Розмір:   4.52 GB 
 Оцінка фільму:   8.9/10 (Голосів: 7)
   
Інші релізи
   Бар Поркі / Porky's (1981) Remux 1080p Ukr/Eng | Sub Eng Hentaihunter  0 / 0   27.21 GB   2017-01-26 20:12 
hetzendorf 
Відео Гуртом - підтримка та поширення
Відео Гуртом - підтримка та поширення


З нами з: 23.07.15
Востаннє: 17.12.17
Повідомлень: 643

2017-03-26 01:28  
О! Яка файна добра стара комедія!
10/10

Ваш часовий пояс: GMT + 2 Години

Нова тема   Відповісти