Тарзан / Tarzan (1999) Remux 1080p Ukr/Eng | Sub Eng

Нові коментарі

Нова тема   Відповісти
Автор Повідомлення
staf777 
Відео Гуртом - підтримка та поширення
Відео Гуртом - підтримка та поширення


З нами з: 16.11.16
Востаннє: 16.08.17
Повідомлень: 522

2017-02-11 01:02  
Тарзан / Tarzan (1999) Remux 1080p Ukr/Eng | Sub Eng

Тарзан / Tarzan (1999) Remux 1080p Ukr/Eng | Sub Eng


Жанр: анімація, пригоди, драма
Країна: США



Кінокомпанія: Walt Disney Productions, Edgar Rice Burroughs Inc., Walt Disney Feature Animation
Режисер: Кріс Бак, Кевін Ліма
Актори: Браян Блессед, Глен Клос, Мінні Драйвер, Тоні Голдвін, Нігель Хоуторн, Ленс хенріксен, Вейн Найт, Алекс Д.Лінц, Роузі О'Доннел, Бет Андерсон

Сюжет:
Тарзан виріс серед горил, в таємничих джунглях, де не ступала нога людини. Вороже царство диких тварин довго не хотіло визнавати тендітного хлопчину. Незабаром на очах у всіх слабкий малюк перетворився на хороброго юнака і став швидше пантери, сильніше тигра. Але коли Тарзан стає справжнім королем джунглів, відбувається несподівана зустріч, яка повністю змінює його життя ...


Тривалість: 01:28:21
Якість: Remux 1080p
Відео:
кодек:
розмір кадру: 1920x1080
бітрейт: 27,9 Mб/с

Аудіо # 1:
мова: українська
переклад: професійний дубльований | LeDoyen Studio, запис з Disney Channel Україна
кодек: 2.0
бітрейт: 192 кб/с

Аудіо # 2:
мова: англійська
переклад: оригінал
кодек: -HD MA 5.1
бітрейт: 3993 кб/с

Субтитри:
мова: англійська
тип: пререндерні
формат: PGS
Info
General
Unique ID : 253973312011775351038766992940183655306 (0xBF117B0D0CA58E69ADAE5C4B6619138A)
Complete name : P:\HD українською » Мультфільми в HD\Tarzan (1999) [Ukr,Eng sub.Eng] Remux 1080p [Hurtom].
Format :
Format version : Version 4 / Version 2
File size : 19.8 GiB
Duration : 1 h 28 min
Overall bit rate mode : Variable
Overall bit rate : 32.0 Mb/s
Movie name : Tarzan (1999) [Ukr,Eng sub.Eng] Remux 1080p [Hurtom]
Encoded date : UTC 2017-02-14 08:33:22
Writing application : mkvmerge v9.8.0 ('Kuglblids') 64bit
Writing library : libebml v1.3.4 + libmatroska v1.4.5

Video
ID : 1
Format : AVC
Format/Info : Advanced Video Codec
Format profile : [email protected]
Format settings, CABAC : Yes
Format settings, ReFrames : 4 frames
Format settings, GOP : M=3, N=12
Codec ID : V_MPEG4/ISO/AVC
Duration : 1 h 28 min
Bit rate mode : Variable
Bit rate : 27.9 Mb/s
Maximum bit rate : 30.5 Mb/s
Width : 1 920 pixels
Height : 1 080 pixels
Display aspect ratio : 16:9
Frame rate mode : Constant
Frame rate : 23.976 (24000/1001) FPS
Color space : YUV
Chroma subsampling : 4:2:0
Bit depth : 8 bits
Scan type : Progressive
Bits/(Pixel*Frame) : 0.561
Stream size : 17.2 GiB (87%)
Default : Yes
Forced : No

Audio #1
ID : 2
Format : AC-3
Format/Info : Audio Coding 3
Mode extension : CM (complete main)
Format settings, Endianness : Big
Codec ID : A_AC3
Duration : 1 h 28 min
Bit rate mode : Constant
Bit rate : 192 kb/s
Channel(s) : 2 channels
Channel positions : Front: L R
Sampling rate : 48.0 kHz
Frame rate : 31.250 FPS (1536 spf)
Bit depth : 16 bits
Compression mode : Lossy
Stream size : 121 MiB (1%)
Language : Ukrainian
Default : Yes
Forced : Yes

Audio #2
ID : 3
Format :
Format/Info : Digital Theater Systems
Format profile : MA / Core
Mode : 16
Format settings, Endianness : Big
Codec ID : A_DTS
Duration : 1 h 28 min
Bit rate mode : Variable / Constant
Bit rate : 3 993 kb/s / 1 509 kb/s
Channel(s) : 5 channels
Channel positions : Front: L C R, Side: L R
Sampling rate : 48.0 kHz
Frame rate : 93.750 FPS (512 spf)
Bit depth : 24 bits
Compression mode : Lossless / Lossy
Stream size : 2.47 GiB (12%)
Language : English
Default : No
Forced : No

Text
ID : 4
Format : PGS
Muxing mode : zlib
Codec ID : S_HDMV/PGS
Codec ID/Info : Picture based subtitle format used on BDs/HD-DVDs
Duration : 1 h 21 min
Bit rate : 20.2 kb/s
Count of elements : 1642
Stream size : 11.7 MiB (0%)
Language : English
Default : No
Forced : No
Скріншоти



Джерело: &
Особиста оцінка: 8 - мені сподобалося
Тарзан / Tarzan (1999) Remux 1080p Ukr/Eng | Sub Eng


Золотий реліз (завантажене не впливає на рейтинг)
 Трекер:    Зареєстрований   

Завантажити / скачати мультфільм українською



відео для новачків



 Зареєстрований:   2017-02-14 13:02
 Розмір:   19.81 GB 
 Оцінка мультфільму:   10/10 (Голосів: 4)
   
Інші релізи
   Тарзан / Tarzan (1999) 720p Ukr/Eng | Sub Eng MutuLI  8 / 0   3 GB   2012-07-14 22:17 
   Тарзан / Tarzan (1999) Ukr/Eng | Sub Eng MutuLI  16 / 0   1.57 GB   2012-07-13 22:55 
bot 
робот


З нами з: 30.09.07
Востаннє: 26.05.05
Повідомлень: 17413

2017-02-14 13:02  
Тему перенесено з Анонси релізів до форуму Мультфільми в HD


staf777

Ваш часовий пояс: GMT + 2 Години

Нова тема   Відповісти