Літачки / Planes (2013) Remux 1080p Ukr/Eng | Sub Ukr/Eng

Нові коментарі

Нова тема   Відповісти
Автор Повідомлення
staf777 
Відео Гуртом - підтримка та поширення
Відео Гуртом - підтримка та поширення


З нами з: 16.11.16
Востаннє: 16.08.17
Повідомлень: 522

2017-02-11 00:09  
Літачки / Planes (2013) Remux 1080p Ukr/Eng | Sub Ukr/Eng

Літачки / Planes (2013) Remux 1080p Ukr/Eng | Sub Ukr/Eng
Альтернативний постер та оригінальна обкладинка




Жанр: анімація, пригодницький, комедія, сімейний
Країна: США



Кінокомпанія: DisneyToon Studios, Prana Studios
Режисер: Клей Голл / Klay Hall
Актори: Вел Кілмер / Val Kilmer, Джулія Луіс-Дрейфус / Julia Louis-Dreyfus, Бред Ґеррет / Brad Garrett, Тері Гетчер / Teri Hatcher, Джон Кліз / John Cleese, Дейн Кук / Dane Cook, Ентоні Едвардс / Anthony Edwards та інші

Сюжет:
У світі реактивних літаків немає місця слабким, але маленький гвинтовий літачок теж хоче пригод, і він відправляється служити на військово-морський флот. Спочатку до нього ставляться упереджено — адже що він може? — але згодом наш завзятий літак доводить усім, що в небі головне не реактивна тяга і безліч крутих наворотів, а хоробрість і велика самовіддача.


Тривалість: 01:31:35
Якість: Remux 1080p
Відео:
кодек:
розмір кадру: 1920x1080
бітрейт: 26,1 Mб/с

Аудіо # 1:
мова: українська
переклад: професійний дубльований
кодек: 5.1
бітрейт: 384 кб/с

Аудіо # 2:
мова: англійська
переклад: оригінал
кодек: -HD MA 7.1
бітрейт: 4893 кб/с

Аудіо # 3:
мова: англійська
переклад: коментарі
кодек: 2.0
бітрейт: 192 кб/с

Джерело озвучення:


Субтитри # 1-2:
мова: українська (форсовані, повні)
тип: пререндерні
формат: *.pgs

Субтитри # 3:
мова: англійська
тип: пререндерні
формат: *.pgs
Info
General
Unique ID : 213342814533698161334475020024125791066 (0xA08054DCBA2B6B9E8C997942E04F1B5A)
Complete name : P:\HD українською » Мультфільми в HD\Planes (2013)[Ukr,Eng sub.Ukr,Eng] Remux 1080p [Hurtom].
Format :
Format version : Version 4 / Version 2
File size : 20.3 GiB
Duration : 1 h 31 min
Overall bit rate mode : Variable
Overall bit rate : 31.8 Mb/s
Movie name : Planes (2013) [Ukr,Eng sub.Ukr,Eng] Remux 1080p [Hurtom]
Encoded date : UTC 2017-02-18 06:00:42
Writing application : mkvmerge v9.8.0 ('Kuglblids') 64bit
Writing library : libebml v1.3.4 + libmatroska v1.4.5

Video
ID : 1
Format : AVC
Format/Info : Advanced Video Codec
Format profile : [email protected]
Format settings, CABAC : Yes
Format settings, ReFrames : 4 frames
Format settings, GOP : M=3, N=12
Codec ID : V_MPEG4/ISO/AVC
Duration : 1 h 31 min
Bit rate mode : Variable
Bit rate : 26.1 Mb/s
Maximum bit rate : 33.5 Mb/s
Width : 1 920 pixels
Height : 1 080 pixels
Display aspect ratio : 16:9
Frame rate mode : Constant
Frame rate : 23.976 (24000/1001) FPS
Color space : YUV
Chroma subsampling : 4:2:0
Bit depth : 8 bits
Scan type : Progressive
Bits/(Pixel*Frame) : 0.525
Stream size : 16.7 GiB (82%)
Default : Yes
Forced : No

Audio #1
ID : 2
Format : AC-3
Format/Info : Audio Coding 3
Mode extension : CM (complete main)
Format settings, Endianness : Big
Codec ID : A_AC3
Duration : 1 h 31 min
Bit rate mode : Constant
Bit rate : 384 kb/s
Channel(s) : 6 channels
Channel positions : Front: L C R, Side: L R, LFE
Sampling rate : 48.0 kHz
Frame rate : 31.250 FPS (1536 spf)
Bit depth : 16 bits
Compression mode : Lossy
Stream size : 252 MiB (1%)
Language : Ukrainian
Default : Yes
Forced : Yes

Audio #2
ID : 3
Format :
Format/Info : Digital Theater Systems
Format profile : MA / Core
Mode : 16
Format settings, Endianness : Big
Codec ID : A_DTS
Duration : 1 h 31 min
Bit rate mode : Variable / Constant
Bit rate : 4 893 kb/s / 1 509 kb/s
Channel(s) : 8 channels / 6 channels
Channel positions : Front: L C R, Side: L R, Back: L R, LFE / Front: L C R, Side: L R, LFE
Sampling rate : 48.0 kHz
Frame rate : 93.750 FPS (512 spf)
Bit depth : 24 bits
Compression mode : Lossless / Lossy
Stream size : 3.13 GiB (15%)
Language : English
Default : No
Forced : No

Audio #3
ID : 4
Format : AC-3
Format/Info : Audio Coding 3
Format profile : Dolby Digital
Mode extension : CM (complete main)
Format settings, Endianness : Big
Codec ID : A_AC3
Duration : 1 h 31 min
Bit rate mode : Constant
Bit rate : 320 kb/s
Channel(s) : 2 channels
Channel positions : Front: L R
Sampling rate : 48.0 kHz
Frame rate : 31.250 FPS (1536 spf)
Bit depth : 16 bits
Compression mode : Lossy
Stream size : 210 MiB (1%)
Language : English
Default : No
Forced : No

Text #1
ID : 5
Format : PGS
Muxing mode : zlib
Codec ID : S_HDMV/PGS
Codec ID/Info : Picture based subtitle format used on BDs/HD-DVDs
Duration : 1 h 30 min
Bit rate : 363 b/s
Count of elements : 46
Stream size : 241 KiB (0%)
Language : Ukrainian
Default : Yes
Forced : No

Text #2
ID : 6
Format : PGS
Muxing mode : zlib
Codec ID : S_HDMV/PGS
Codec ID/Info : Picture based subtitle format used on BDs/HD-DVDs
Duration : 1 h 31 min
Bit rate : 29.2 kb/s
Count of elements : 2822
Stream size : 19.0 MiB (0%)
Language : Ukrainian
Default : No
Forced : No

Text #3
ID : 7
Format : PGS
Muxing mode : zlib
Codec ID : S_HDMV/PGS
Codec ID/Info : Picture based subtitle format used on BDs/HD-DVDs
Duration : 1 h 24 min
Bit rate : 17.6 kb/s
Count of elements : 3132
Stream size : 10.6 MiB (0%)
Language : English
Default : No
Forced : No

Text #4
ID : 8
Format : PGS
Muxing mode : zlib
Codec ID : S_HDMV/PGS
Codec ID/Info : Picture based subtitle format used on BDs/HD-DVDs
Duration : 1 h 24 min
Bit rate : 15.2 kb/s
Count of elements : 2798
Stream size : 9.16 MiB (0%)
Language : English
Default : No
Forced : No
Скріншоти



Джерело: &


Золотий реліз (завантажене не впливає на рейтинг)
 Трекер:    Зареєстрований   

Завантажити / скачати мультфільм українською



відео для новачків



 Зареєстрований:   2017-02-18 10:29
 Розмір:   20.33 GB 
 Оцінка мультфільму:   9.5/10 (Голосів: 4)
   
Інші релізи
   Літачки / Planes (2013) DVD5 Quasar  0 / 1   4.36 GB   2014-07-29 14:06 
   Літачки / Planes (2013) AVC Drool  15 / 0   2.05 GB   2013-12-15 20:56 
   Літачки / Planes (2013) 1080p Ukr/Eng | Sub Ukr/Eng 11FrYkT  7 / 0   6.98 GB   2013-12-15 12:28 
   Літачки / Planes (2013) 720p Ukr/Eng | Sub Ukr/Eng 11FrYkT  15 / 0   4.55 GB   2013-12-15 12:04 
Ваш часовий пояс: GMT + 2 Години

Нова тема   Відповісти