Корпорація монстрів / Monsters, Inc. (2001) Remux 1080p Ukr/Eng | Sub Eng

Нові коментарі

Нова тема   Відповісти
Автор Повідомлення
staf777 
Відео Гуртом - підтримка та поширення
Відео Гуртом - підтримка та поширення


З нами з: 16.11.16
Востаннє: 16.08.17
Повідомлень: 522

2017-02-10 23:32  
Корпорація монстрів / Monsters, Inc. (2001) Remux 1080p Ukr/Eng | Sub Eng

Корпорація монстрів / Monsters, Inc. (2001) Remux 1080p Ukr/Eng | Sub Eng


Жанр: анімація, комедія, сімейний, фантастика
Країна: США



Кінокомпанія: Walt Disney Pictures / Pixar Animation Studios
Режисер: Пітер Доктер
Ролі озвучують: Пітер Доктер, Лі Анкріч, Девід Сілверман

Сюжет:
Вони монстри, проте не такі вже й страшні, а деякі навіть милі. Живуть вони в паралельному до нашого світу місті Монстрополісі. Їхня робота – лякати дітей, адже саме дитячі крики виробляють енергію, потрібну для життєдіяльності міста.
Звісно, контакти з дітьми суворо заборонені, але найкращий з монстрів Саллі порушує рівновагу – він зустрічає гарну маленьку дівчинку...


Тривалість: 01:32:15
Якість: Remux 1080p
Відео:
кодек:
розмір кадру: 1920 х 1080
бітрейт: 23,9 Mб/с

Аудіо # 1:
мова: українська
переклад: професійний дубльований
кодек: 2.0
бітрейт: 192 кб/с

Аудіо # 2:
мова: англійська
переклад: оригінал
кодек: -HD MA 5.1
бітрейт: 4059 кб/с

Аудіо # 3:
мова: англійська
переклад: коментарі
кодек: 2.0
бітрейт: 192 кб/с

Субтитри:
мова: англійська
тип: пререндерні
формат: PGS

Скріншоти





МедіаІнфо
General
Unique ID : 197276380322368873153815275408397005342 (0x946A0C7F5B7523C3801FD1CF9201721E)
Complete name : P:\HD українською » Мультфільми в HD\Monsters, Inc. (2001) [Ukr,Eng sub.Eng] Remux 1080p [Hurtom].
Format :
Format version : Version 4 / Version 2
File size : 18.3 GiB
Duration : 1 h 32 min
Overall bit rate : 28.4 Mb/s
Movie name : Monsters, Inc. (2001) [Ukr,Eng sub.Eng] Remux 1080p [Hurtom]
Encoded date : UTC 2017-02-14 10:12:02
Writing application : mkvmerge v9.8.0 ('Kuglblids') 64bit
Writing library : libebml v1.3.4 + libmatroska v1.4.5

Video
ID : 1
Format : AVC
Format/Info : Advanced Video Codec
Format profile : [email protected]
Format settings, CABAC : Yes
Format settings, ReFrames : 4 frames
Codec ID : V_MPEG4/ISO/AVC
Duration : 1 h 32 min
Bit rate mode : Constant
Bit rate : 23.9 Mb/s
Nominal bit rate : 30.5 Mb/s
Width : 1 920 pixels
Height : 1 080 pixels
Display aspect ratio : 16:9
Frame rate mode : Constant
Frame rate : 23.976 (24000/1001) FPS
Color space : YUV
Chroma subsampling : 4:2:0
Bit depth : 8 bits
Scan type : Progressive
Bits/(Pixel*Frame) : 0.481
Stream size : 15.4 GiB (84%)
Default : Yes
Forced : No
Color range : Limited
Color primaries : BT.709
Transfer characteristics : BT.709
Matrix coefficients : BT.709

Audio #1
ID : 2
Format : AC-3
Format/Info : Audio Coding 3
Mode extension : CM (complete main)
Format settings, Endianness : Big
Codec ID : A_AC3
Duration : 1 h 32 min
Bit rate mode : Constant
Bit rate : 192 kb/s
Channel(s) : 2 channels
Channel positions : Front: L R
Sampling rate : 48.0 kHz
Frame rate : 31.250 FPS (1536 spf)
Bit depth : 16 bits
Compression mode : Lossy
Stream size : 127 MiB (1%)
Language : Ukrainian
Default : Yes
Forced : Yes

Audio #2
ID : 3
Format :
Format/Info : Digital Theater Systems
Format profile : MA / ES Matrix / Core
Mode : 16
Format settings, Endianness : Big
Codec ID : A_DTS
Duration : 1 h 32 min
Bit rate mode : Variable / Constant / Constant
Bit rate : 4 059 kb/s / 1 509 kb/s / 1 509 kb/s
Channel(s) : 7 channels / 7 channels / 6 channels
Channel positions : Front: L C R, Side: L R, Back: C, LFE / Front: L C R, Side: L R, Back: C, LFE / Front: L C R, Side: L R, LFE
Sampling rate : 48.0 kHz
Frame rate : 93.750 FPS (512 spf)
Bit depth : 24 bits
Compression mode : Lossless / Lossy / Lossy
Stream size : 2.62 GiB (14%)
Language : English
Default : No
Forced : No

Audio #3
ID : 4
Format : AC-3
Format/Info : Audio Coding 3
Mode extension : CM (complete main)
Format settings, Endianness : Big
Codec ID : A_AC3
Duration : 1 h 32 min
Bit rate mode : Constant
Bit rate : 192 kb/s
Channel(s) : 2 channels
Channel positions : Front: L R
Sampling rate : 48.0 kHz
Frame rate : 31.250 FPS (1536 spf)
Bit depth : 16 bits
Compression mode : Lossy
Stream size : 127 MiB (1%)
Language : English
Default : No
Forced : No

Text
ID : 5
Format : PGS
Muxing mode : zlib
Codec ID : S_HDMV/PGS
Codec ID/Info : Picture based subtitle format used on BDs/HD-DVDs
Duration : 1 h 25 min
Bit rate : 11.3 kb/s
Count of elements : 2185
Stream size : 6.85 MiB (0%)
Language : English
Default : No
Forced : No

Джерело: &



Золотий реліз (завантажене не впливає на рейтинг)
 Трекер:    Зареєстрований   

Завантажити / скачати мультфільм українською



відео для новачків



 Зареєстрований:   2017-02-14 14:17
 Розмір:   18.28 GB 
 Оцінка мультфільму:   10/10 (Голосів: 7)
   
Інші релізи
bot 
робот


З нами з: 30.09.07
Востаннє: 26.05.05
Повідомлень: 17366

2017-02-14 14:17  
Тему перенесено з Анонси релізів до форуму Мультфільми в HD


staf777

Argentum 
Свій


З нами з: 25.09.11
Востаннє: 19.08.17
Повідомлень: 65

2017-02-14 15:37  
staf777 Реліз "Університет монстрів" у Remux плануєте?
staf777 
Відео Гуртом - підтримка та поширення
Відео Гуртом - підтримка та поширення


З нами з: 16.11.16
Востаннє: 16.08.17
Повідомлень: 522

2017-02-14 17:59  
Argentum
Поки ні

Ваш часовий пояс: GMT + 2 Години

Нова тема   Відповісти