Будинок-монстр / Monster House (2006) Remux 1080p Ukr/Eng | Sub Ukr/Eng

Нові коментарі

Нова тема   Відповісти
Автор Повідомлення
staf777 
Відео Гуртом - підтримка та поширення
Відео Гуртом - підтримка та поширення


З нами з: 16.11.16
Востаннє: 16.08.17
Повідомлень: 522

2017-02-10 22:49  
Будинок-монстр / Monster House (2006) Remux 1080p Ukr/Eng | Sub Ukr/Eng



Альтернативні та оригінальні постери




повнорозмірні скріншоти відкриваються по кліку (з натиснутим CTRL чи кліком середньою кнопкою мишки - у іншій вкладці)


Жанр: анімація, фентезі, комедія, детектив, сімейний
Країна: США



Кінокомпанія: Columbia Pictures, Relativity Media, ImageMovers, Amblin Entertainment, Sony Pictures Animation
Режисер: Джил Кенан / Gil Kenan
В оригіналі ролі озвучили: Мітчел Муссо / Mitchel Musso, Сем Лернер / Sam Lerner, Спенсер Лок / Spencer Locke, Стів Бушемі / Steve Buscemi, Нік Кеннон / Nick Cannon, Меггі Джиленгол / Maggie Gyllenhaal, Кевін Джеймс / Kevin James, Джейсон Лі / Jason Lee, Катерін О'Хара / Catherine O'Hara, Кетлін Тернер / Kathleen Turner, Фред Віллард / Fred Willard, Раян Ньоюман / Ryan Newman, Вуді Шульц / Woody Schultz та інші

Сюжет:
Добре бути хлопчаком. Кожен день, як усе життя! Стільки всього навколо: дівчата, морозиво, бійки, підручники, футбол. Насичений день, коротше, виходить. А от якщо ти одного разу виявив, що будинок, який стоїть по сусідству з будинком твоєї сім'ї - зовсім не будинок ... А простіше кажучи - монстр. Чудовисько, загалом. Отакі справи.

Ну от, історія ця про те, як три приятелі, ДіДжей, Чедер та Дженні, виявили, що будинок, що знаходиться неподалік, справжнісінький монстр. Тільки ніхто їм не вірив. Мало чого понавидумують діти ... Тільки даремно вони так. Хлопці їх попереджали ...


Рейтинг MPAA: PG - рекомендується присутність батьків
Вікова категорія: 10+

Тривалість: 01:30:38
Якість: Remux 1080p
Відео:
кодек:
розмір кадру: 1920 х 1080
бітрейт: 19.2 Mбіт/с

Аудіо # 1:
мова: українська
переклад: багатоголосий закадровий
кодек: 5.1
бітрейт: 448 кбіт/с

Аудіо # 2:
мова: англійська
переклад: оригінал
кодек: HD MA 5.1
бітрейт: 2601 кбіт/с

Аудіо # 3:
мова: англійська
переклад: коментарі
кодек: 2.0
бітрейт: 192 кбіт/с

Субтитри # 1:
мова: українська
тип: програмні (м'які)
формат: *.srt

Субтитри # 2:
мова: англійська
тип: програмні (м'які)
формат: *.srt

Збережено оригінальні розділи, як на Blu-ray.
Info
Код:
General
Unique ID                                : 225969782181926936753153586699269264387 (0xAA00326ECB488FE6B4797E45484F5403)
Complete name                            : P:\RUTrecker\ Monster House (2006) [Ukr,Eng sub.Ukr,Eng] Remux 1080p [Hurtom].
Format                                   :
Format version                           : Version 4 / Version 2
File size                                : 14.0 GiB
Duration                                 : 1 h 30 min
Overall bit rate mode                    : Variable
Overall bit rate                         : 22.1 Mb/s
Movie name                               :  Monster House (2006) [Ukr,Eng sub.Ukr,Eng] Remux 1080p [Hurtom]
Encoded date                             : UTC 2017-02-21 10:46:09
Writing application                      : mkvmerge v9.8.0 ('Kuglblids') 64bit
Writing library                          : libebml v1.3.4 + libmatroska v1.4.5

Video
ID                                       : 1
Format                                   : MPEG Video
Format version                           : Version 2
Format profile                           : [email protected]
Format settings, BVOP                    : Yes
Format settings, Matrix                  : Custom
Format settings, GOP                     : M=3, N=15
Codec ID                                 : V_MPEG2
Codec ID/Info                            : MPEG 1 or 2 Video
Duration                                 : 1 h 30 min
Bit rate mode                            : Variable
Bit rate                                 : 19.2 Mb/s
Maximum bit rate                         : 40.0 Mb/s
Width                                    : 1 920 pixels
Height                                   : 1 080 pixels
Display aspect ratio                     : 16:9
Frame rate mode                          : Constant
Frame rate                               : 23.976 (24000/1001) FPS
Color space                              : YUV
Chroma subsampling                       : 4:2:0
Bit depth                                : 8 bits
Scan type                                : Progressive
Compression mode                         : Lossy
Bits/(Pixel*Frame)                       : 0.385
Time code of first frame                 : 00:59:59:00
Time code source                         : Group of pictures header
GOP, Open/Closed                         : Open
GOP, Open/Closed of first frame          : Closed
Stream size                              : 12.1 GiB (87%)
Language                                 : English
Default                                  : Yes
Forced                                   : No

Audio #1
ID                                       : 2
Format                                   : AC-3
Format/Info                              : Audio Coding 3
Mode extension                           : CM (complete main)
Format settings, Endianness              : Big
Codec ID                                 : A_AC3
Duration                                 : 1 h 30 min
Bit rate mode                            : Constant
Bit rate                                 : 448 kb/s
Channel(s)                               : 6 channels
Channel positions                        : Front: L C R, Side: L R, LFE
Sampling rate                            : 48.0 kHz
Frame rate                               : 31.250 FPS (1536 spf)
Bit depth                                : 16 bits
Compression mode                         : Lossy
Stream size                              : 290 MiB (2%)
Title                                    : UA-MVO, K1|
Language                                 : Ukrainian
Default                                  : Yes
Forced                                   : Yes

Audio #2
ID                                       : 3
Format                                   :
Format/Info                              : Digital Theater Systems
Format profile                           : MA / Core
Mode                                     : 16
Format settings, Endianness              : Big
Codec ID                                 : A_DTS
Duration                                 : 1 h 30 min
Bit rate mode                            : Variable / Constant
Bit rate                                 : 2 261 kb/s / 1 509 kb/s
Channel(s)                               : 6 channels
Channel positions                        : Front: L C R, Side: L R, LFE
Sampling rate                            : 48.0 kHz
Frame rate                               : 93.750 FPS (512 spf)
Bit depth                                : 16 bits
Compression mode                         : Lossless / Lossy
Stream size                              : 1.43 GiB (10%)
Title                                    : ENG
Language                                 : English
Default                                  : No
Forced                                   : No

Audio #3
ID                                       : 4
Format                                   : AC-3
Format/Info                              : Audio Coding 3
Format profile                           : Dolby Digital
Mode extension                           : CM (complete main)
Format settings, Endianness              : Big
Codec ID                                 : A_AC3
Duration                                 : 1 h 30 min
Bit rate mode                            : Constant
Bit rate                                 : 192 kb/s
Channel(s)                               : 2 channels
Channel positions                        : Front: L R
Sampling rate                            : 48.0 kHz
Frame rate                               : 31.250 FPS (1536 spf)
Bit depth                                : 16 bits
Compression mode                         : Lossy
Stream size                              : 124 MiB (1%)
Title                                    : ENG - coment
Language                                 : English
Default                                  : No
Forced                                   : No

Text #1
ID                                       : 5
Format                                   : UTF-8
Codec ID                                 : S_TEXT/UTF8
Codec ID/Info                            : UTF-8 Plain Text
Duration                                 : 1 h 28 min
Bit rate                                 : 66 b/s
Count of elements                        : 1002
Stream size                              : 43.3 KiB (0%)
Title                                    : Ukr Sub
Language                                 : Ukrainian
Default                                  : No
Forced                                   : No

Text #2
ID                                       : 6
Format                                   : UTF-8
Codec ID                                 : S_TEXT/UTF8
Codec ID/Info                            : UTF-8 Plain Text
Duration                                 : 1 h 28 min
Bit rate                                 : 44 b/s
Count of elements                        : 986
Stream size                              : 28.7 KiB (0%)
Title                                    : Eng Sub
Language                                 : English
Default                                  : No
Forced                                   : No

Menu
00:00:00.000                             : en:00:00:00.000
00:03:23.620                             : en:00:03:23.620
00:06:35.020                             : en:00:06:35.020
00:10:27.377                             : en:00:10:27.377
00:13:36.274                             : en:00:13:36.274
00:16:45.755                             : en:00:16:45.755
00:20:24.223                             : en:00:20:24.223
00:23:59.688                             : en:00:23:59.688
00:26:36.553                             : en:00:26:36.553
00:30:10.851                             : en:00:30:10.851
00:33:04.274                             : en:00:33:04.274
00:36:03.328                             : en:00:36:03.328
00:39:17.397                             : en:00:39:17.397
00:42:31.382                             : en:00:42:31.382
00:46:21.028                             : en:00:46:21.028
00:49:50.821                             : en:00:49:50.821
00:53:41.468                             : en:00:53:41.468
00:56:45.902                             : en:00:56:45.902
01:00:23.411                             : en:01:00:23.411
01:03:37.522                             : en:01:03:37.522
01:05:41.354                             : en:01:05:41.354
01:08:35.445                             : en:01:08:35.445
01:11:56.562                             : en:01:11:56.562
01:13:02.461                             : en:01:13:02.461
01:15:49.879                             : en:01:15:49.879
01:16:55.778                             : en:01:16:55.778
01:17:28.269                             : en:01:17:28.269
01:20:50.262                             : en:01:20:50.262
Скріншоти



Джерела та подяки: &
українська доріжка - Тирік - зведення, gig_Panas - запис з ТБ; українізовані постери - Тирік (обоє - Гуртом).


ЗАЛИШАЙТЕСЬ ЯКОМОГА ДОВШЕ НА РОЗДАЧІ!

СКАЧАВ САМ - ДАЙ СКАЧАТИ ІНШИМ


Золотий реліз (завантажене не впливає на рейтинг)
 Трекер:    Зареєстрований   

Завантажити / скачати мультфільм українською



відео для новачків



 Зареєстрований:   2017-02-21 14:46
 Розмір:   13.96 GB 
 Оцінка мультфільму:   10/10 (Голосів: 3)
   
Інші релізи
Ваш часовий пояс: GMT + 2 Години

Нова тема   Відповісти