Думками навиворiт / Inside Out (2015) Remux 1080p Ukr/Eng | Sub Eng

Нові коментарі

Нова тема   Відповісти
Автор Повідомлення
staf777 
Відео Гуртом - підтримка та поширення
Відео Гуртом - підтримка та поширення


З нами з: 16.11.16
Востаннє: 16.08.17
Повідомлень: 522

2017-02-10 22:03  
Думками навиворiт / Inside Out (2015) Remux 1080p Ukr/Eng | Sub Eng


«Багато галасу в маленькій голові»



Жанр: анімація, пригодницький, комедія
Країна: США

Top250#128

Кінокомпанія: Pixar Animation Studios, Walt Disney Pictures
Режисери: Піт Доктер, Роналдо Дель Кармен
Ролі озвучують: Льюїс Блек, Мінді Кейлінґ, Білл Гейдер, Емі Полер, Філліс Сміт, Річард Кайнд, Кейтлін Діас, Даян Лейн, Кайл МакЛоклен, Пола Паундстон

Сюжет:
Райлі - звичайна 11-річна школярка, і, як у кожного з нас, її поведінку визначають п'ять базових емоцій: радість, страх, гнів, відраза і печаль. Емоції живуть у свідомості дівчинки і кожен день допомагають їй справлятися з проблемами, керуючи усіма її вчинками. До пори до часу емоції живуть дружно, але раптом виявляється, що Райлі і її батьків чекає переїзд з невеликого затишного містечка в галасливий і людний мегаполіс. Кожна з емоцій вважає, що саме вона краще інших знає, що потрібно робити в цій непростій ситуації, і в голові у дівчинки настає повна плутанина. Щоб налагодити життя у великому місті, освоїтися в новій школі і подружитися з однокласниками, емоціям Райлі належить знову навчитися працювати спільно.


Тривалість: 01:34:37
Якість: Remux 1080p
Відео:
кодек:
розмір кадру: 1920 x 1080
бітрейт: 24 Mб/с

Аудіо #1:
мова: українська
переклад: професійний дубльований
кодек: -HD MA 5.1
бітрейт: 3641 кб/с
Інформація про дубляж
Ролі дублювали: Наталя Денисенко, Віталіна Біблів, Назар Задніпровський, Володимир Терещук, Ігор Тимошенко, Катерина Буцька, Марія Нікітенко, Михайло Войчук, Людмила Барбір, Володимир Плахов, Кирило Нікітенко, Сергій Солопай, Дмитро Бузинський та інші.
Аудіо # 2:
мова: англійська
переклад: оригінал
кодек: -HD MA 7.1
бітрейт: 3291 кб/с

Аудіо # 3:
мова: англійська
переклад: оригінал
кодек: -HD MA 5.1
бітрейт: 2046 кб/с

Аудіо # 4:
мова: англійська
переклад: оригінал
кодек: 2.0
бітрейт: 320 кб/с

Аудіо # 5:
мова: англійська
переклад: Commentary with Directors Pete Docter and Ronnie del Carmen, and Producer Jonas Rivera
кодек: 2.0
бітрейт: 320 кб/с

Аудіо # 6:
мова: англійська
переклад: описова
кодек: 2.0
бітрейт: 320 кб/с

Субтитри #1-4:
мова: англійська
тип: пререндерні
формат: PGS

Скріншоти



[imghttp://img.hurtom.com/i/2017/02/InsideOut2015UkrEngsub.EngBDRemux1080pHurtom.mkv_snapshot_00.17.33_2017.02.12_04.59.43.png][/img]
Info
Код:
General
Unique ID                                : 194545802632022640108618762133941387241 (0x925C289F8A38E93FB75AB0682E39FFE9)
Complete name                            : P:\HDClub\INSIDE_OUT_REMUX_HDCLUB\BDMV\STREAM\Inside Out (2015) [Ukr,Eng sub.Eng] Remux 1080p [Hurtom].
Format                                   :
Format version                           : Version 4 / Version 2
File size                                : 22.5 GiB
Duration                                 : 1 h 34 min
Overall bit rate mode                    : Variable
Overall bit rate                         : 34.0 Mb/s
Movie name                               : Inside Out (2015) [Ukr,Eng sub.Eng] Remux 1080p [Hurtom]
Encoded date                             : UTC 2017-02-12 02:22:26
Writing application                      : mkvmerge v9.8.0 ('Kuglblids') 64bit
Writing library                          : libebml v1.3.4 + libmatroska v1.4.5

Video
ID                                       : 1
Format                                   : AVC
Format/Info                              : Advanced Video Codec
Format profile                           : [email protected]
Format settings, CABAC                   : Yes
Format settings, ReFrames                : 4 frames
Codec ID                                 : V_MPEG4/ISO/AVC
Duration                                 : 1 h 34 min
Bit rate mode                            : Variable
Bit rate                                 : 24.0 Mb/s
Maximum bit rate                         : 34.0 Mb/s
Width                                    : 1 920 pixels
Height                                   : 1 080 pixels
Display aspect ratio                     : 16:9
Frame rate mode                          : Constant
Frame rate                               : 23.976 (24000/1001) FPS
Color space                              : YUV
Chroma subsampling                       : 4:2:0
Bit depth                                : 8 bits
Scan type                                : Progressive
Bits/(Pixel*Frame)                       : 0.483
Stream size                              : 15.9 GiB (71%)
Default                                  : Yes
Forced                                   : No

Audio #1
ID                                       : 2
Format                                   :
Format/Info                              : Digital Theater Systems
Format profile                           : MA / Core
Mode                                     : 16
Format settings, Endianness              : Big
Codec ID                                 : A_DTS
Duration                                 : 1 h 34 min
Bit rate mode                            : Variable / Constant
Bit rate                                 : 3 641 kb/s / 1 509 kb/s
Channel(s)                               : 6 channels
Channel positions                        : Front: L C R, Side: L R, LFE
Sampling rate                            : 48.0 kHz
Frame rate                               : 93.750 FPS (512 spf)
Bit depth                                : 24 bits
Compression mode                         : Lossless / Lossy
Stream size                              : 2.41 GiB (11%)
Language                                 : Ukrainian
Default                                  : Yes
Forced                                   : Yes

Audio #2
ID                                       : 3
Format                                   :
Format/Info                              : Digital Theater Systems
Format profile                           : MA / Core
Mode                                     : 16
Format settings, Endianness              : Big
Codec ID                                 : A_DTS
Duration                                 : 1 h 34 min
Bit rate mode                            : Variable / Constant
Bit rate                                 : 3 291 kb/s / 1 509 kb/s
Channel(s)                               : 8 channels / 6 channels
Channel positions                        : Front: L C R, Side: L R, Back: L R, LFE / Front: L C R, Side: L R, LFE
Sampling rate                            : 48.0 kHz
Frame rate                               : 93.750 FPS (512 spf)
Bit depth                                : 24 bits
Compression mode                         : Lossless / Lossy
Stream size                              : 2.18 GiB (10%)
Language                                 : English
Default                                  : No
Forced                                   : No

Audio #3
ID                                       : 4
Format                                   :
Format/Info                              : Digital Theater Systems
Format profile                           : HRA / Core
Mode                                     : 16
Format settings, Endianness              : Big
Codec ID                                 : A_DTS
Duration                                 : 1 h 34 min
Bit rate mode                            : Constant
Bit rate                                 : 2 046 kb/s / 1 509 kb/s
Channel(s)                               : 6 channels
Channel positions                        : Front: L C R, Side: L R, LFE
Sampling rate                            : 48.0 kHz
Frame rate                               : 93.750 FPS (512 spf)
Bit depth                                : 24 bits
Compression mode                         : Lossy
Stream size                              : 1.36 GiB (6%)
Language                                 : English
Default                                  : No
Forced                                   : No

Audio #4
ID                                       : 5
Format                                   : AC-3
Format/Info                              : Audio Coding 3
Format profile                           : Dolby Digital
Mode extension                           : CM (complete main)
Format settings, Endianness              : Big
Codec ID                                 : A_AC3
Duration                                 : 1 h 34 min
Bit rate mode                            : Constant
Bit rate                                 : 320 kb/s
Channel(s)                               : 2 channels
Channel positions                        : Front: L R
Sampling rate                            : 48.0 kHz
Frame rate                               : 31.250 FPS (1536 spf)
Bit depth                                : 16 bits
Compression mode                         : Lossy
Stream size                              : 217 MiB (1%)
Language                                 : English
Default                                  : No
Forced                                   : No

Audio #5
ID                                       : 6
Format                                   : AC-3
Format/Info                              : Audio Coding 3
Format profile                           : Dolby Digital
Mode extension                           : CM (complete main)
Format settings, Endianness              : Big
Codec ID                                 : A_AC3
Duration                                 : 1 h 34 min
Bit rate mode                            : Constant
Bit rate                                 : 320 kb/s
Channel(s)                               : 2 channels
Channel positions                        : Front: L R
Sampling rate                            : 48.0 kHz
Frame rate                               : 31.250 FPS (1536 spf)
Bit depth                                : 16 bits
Compression mode                         : Lossy
Stream size                              : 217 MiB (1%)
Language                                 : English
Default                                  : No
Forced                                   : No

Audio #6
ID                                       : 7
Format                                   : AC-3
Format/Info                              : Audio Coding 3
Mode extension                           : CM (complete main)
Format settings, Endianness              : Big
Codec ID                                 : A_AC3
Duration                                 : 1 h 34 min
Bit rate mode                            : Constant
Bit rate                                 : 320 kb/s
Channel(s)                               : 2 channels
Channel positions                        : Front: L R
Sampling rate                            : 48.0 kHz
Frame rate                               : 31.250 FPS (1536 spf)
Bit depth                                : 16 bits
Compression mode                         : Lossy
Stream size                              : 217 MiB (1%)
Language                                 : English
Default                                  : No
Forced                                   : No

Text #1
ID                                       : 8
Format                                   : PGS
Muxing mode                              : zlib
Codec ID                                 : S_HDMV/PGS
Codec ID/Info                            : Picture based subtitle format used on BDs/HD-DVDs
Duration                                 : 1 h 33 min
Bit rate                                 : 13.4 kb/s
Count of elements                        : 2734
Stream size                              : 8.95 MiB (0%)
Language                                 : English
Default                                  : No
Forced                                   : No

Text #2
ID                                       : 9
Format                                   : PGS
Muxing mode                              : zlib
Codec ID                                 : S_HDMV/PGS
Codec ID/Info                            : Picture based subtitle format used on BDs/HD-DVDs
Duration                                 : 1 h 33 min
Bit rate                                 : 17.2 kb/s
Count of elements                        : 3692
Stream size                              : 11.5 MiB (0%)
Language                                 : English
Default                                  : No
Forced                                   : No

Text #3
ID                                       : 10
Format                                   : PGS
Muxing mode                              : zlib
Codec ID                                 : S_HDMV/PGS
Codec ID/Info                            : Picture based subtitle format used on BDs/HD-DVDs
Duration                                 : 1 h 34 min
Bit rate                                 : 21.1 kb/s
Count of elements                        : 3728
Stream size                              : 14.2 MiB (0%)
Language                                 : English
Default                                  : No
Forced                                   : No

Text #4
ID                                       : 11
Format                                   : PGS
Muxing mode                              : zlib
Codec ID                                 : S_HDMV/PGS
Codec ID/Info                            : Picture based subtitle format used on BDs/HD-DVDs
Duration                                 : 1 h 34 min
Bit rate                                 : 23.5 kb/s
Count of elements                        : 3934
Stream size                              : 15.8 MiB (0%)
Language                                 : English
Default                                  : No
Forced                                   : No
Джерело: &


Золотий реліз (завантажене не впливає на рейтинг)
 Трекер:    Зареєстрований   

Завантажити / скачати мультфільм українською



відео для новачків



 Зареєстрований:   2017-02-12 06:35
 Розмір:   22.55 GB 
 Оцінка мультфільму:   10/10 (Голосів: 9)
   
Інші релізи
Ваш часовий пояс: GMT + 2 Години

Нова тема   Відповісти