Один шанс на двох / 1 chance sur 2 (1998) 1080p Ukr/Fra

Нові коментарі

Нова тема   Відповісти
Останній раз роздавалося Uncles (2017-08-23)
Автор Повідомлення
staf777 
Відео Гуртом - підтримка та поширення
Відео Гуртом - підтримка та поширення


З нами з: 16.11.16
Востаннє: 16.08.17
Повідомлень: 522

2017-02-10 16:42  
Один шанс на двох / 1 chance sur 2 (1998) 1080p Ukr/Fra

Один шанс на двох / 1 chance sur 2 (1998) 1080p Ukr/Fra


Жанр: драма, бойовик, комедія, пригодницький
Країна: Франція



Кінокомпанія: Les Films Christian Fechner, Union Générale Cinématographique (UGC), TF1 Films Production
Режисер: Патріс Леконт
Актори: Жан-Поль Бельмондо, Ален Делон, Ванесса Параді, Ерік Дефосс, Олександр Яковлєв, Валерій Гатаєв, Мішель Омон

Сюжет:
Тобі - 20 років, ти красива, з легкістю викрадаєш машини і тільки що вийшла з в'язниці. Вони - два претенденти на роль твого тата, легко збирають «Магнум» з зав'язаними очима і мають чималий досвід поводження з вибухівкою. Коли ви разом - вам не страшні ні французька поліція, ні російська мафія ...


Тривалість: 01:49:03
Якість: 1080p
Відео:
кодек:
розмір кадру: 1914x814
бітрейт: 16,5 Mб/с

Аудіо # 1:
мова: українська
переклад: багатоголосий закадровий
кодек: 2.0
бітрейт: 192 кб/с

Аудіо # 2:
мова: французька
переклад: оригінал
кодек: 5.1
бітрейт: 1509 кб/с
Info
General
Unique ID : 209524085749697312090322014348494453850 (0x9DA0DEFF33A7B82AAFAD632593BF3C5A)
Complete name : P:\HD українською » Фільми в HD\Комедія\1 chance sur 2 (1998) [Ukr,Fra] 1080p [Hurtom].
Format :
Format version : Version 4 / Version 2
File size : 13.9 GiB
Duration : 1 h 49 min
Overall bit rate : 18.2 Mb/s
Movie name : 1 chance sur 2 (1998) [Ukr,Fra] 1080p [Hurtom]
Encoded date : UTC 2017-02-11 06:35:23
Writing application : mkvmerge v9.8.0 ('Kuglblids') 64bit
Writing library : libebml v1.3.4 + libmatroska v1.4.5
Cover : Yes
Attachments : cover.jpg

Video
ID : 1
Format : AVC
Format/Info : Advanced Video Codec
Format profile : [email protected]
Format settings, CABAC : Yes
Format settings, ReFrames : 5 frames
Codec ID : V_MPEG4/ISO/AVC
Duration : 1 h 49 min
Bit rate : 16.5 Mb/s
Width : 1 914 pixels
Height : 814 pixels
Display aspect ratio : 2.35:1
Frame rate mode : Constant
Frame rate : 24.000 FPS
Color space : YUV
Chroma subsampling : 4:2:0
Bit depth : 8 bits
Scan type : Progressive
Bits/(Pixel*Frame) : 0.441
Stream size : 12.6 GiB (91%)
Writing library : core 148 r2744+55 950084e t_mod_Custom [[email protected] X86_64]
Encoding settings : cabac=1 / ref=5 / deblock=1:-3:-3 / analyse=0x3:0x133 / me=umh / subme=10 / psy=1 / fade_compensate=0.00 / psy_rd=1.00:0.05 / mixed_ref=1 / me_range=32 / chroma_me=1 / trellis=2 / 8x8dct=1 / cqm=0 / deadzone=21,11 / fast_pskip=1 / chroma_qp_offset=-3 / threads=6 / lookahead_threads=1 / sliced_threads=0 / nr=0 / decimate=1 / interlaced=0 / bluray_compat=0 / constrained_intra=0 / fgo=0 / bframes=8 / b_pyramid=2 / b_adapt=2 / b_bias=0 / direct=3 / weightb=1 / open_gop=0 / weightp=2 / keyint=250 / keyint_min=23 / scenecut=40 / intra_refresh=0 / rc=2pass / mbtree=0 / bitrate=16500 / ratetol=1.0 / qcomp=0.60 / qpmin=0:0:0 / qpmax=69:69:69 / qpstep=4 / cplxblur=20.0 / qblur=0.5 / ip_ratio=1.30 / pb_ratio=1.20 / aq=1:0.65 / aq-sensitivity=10.00 / aq-factor=1.00:1.00:1.00 / aq2=1:0.60 / aq2-sensitivity=15.00 / aq2-factor=1.00:1.00:1.00 / aq3=1:[0.55:0.55]:[0.55:0.55]:[0.55:0.55]:[0.55:0.55] / aq3-sensitivity=10.00 / aq3-factor=[1.00:1.00]:[1.00:1.00]:[1.00:1.00] / aq3-boundary=192:64:24
Language : English
Default : Yes
Forced : No
Color range : Limited
Matrix coefficients : BT.709

Audio #1
ID : 2
Format : AC-3
Format/Info : Audio Coding 3
Mode extension : CM (complete main)
Format settings, Endianness : Big
Codec ID : A_AC3
Duration : 1 h 49 min
Bit rate mode : Constant
Bit rate : 192 kb/s
Channel(s) : 2 channels
Channel positions : Front: L R
Sampling rate : 48.0 kHz
Frame rate : 31.250 FPS (1536 spf)
Bit depth : 16 bits
Compression mode : Lossy
Stream size : 150 MiB (1%)
Title : UA-MVO, 2+2
Language : Ukrainian
Default : Yes
Forced : Yes

Audio #2
ID : 3
Format :
Format/Info : Digital Theater Systems
Mode : 16
Format settings, Endianness : Big
Codec ID : A_DTS
Duration : 1 h 49 min
Bit rate mode : Constant
Bit rate : 1 509 kb/s
Channel(s) : 6 channels
Channel positions : Front: L C R, Side: L R, LFE
Sampling rate : 48.0 kHz
Frame rate : 93.750 FPS (512 spf)
Bit depth : 24 bits
Compression mode : Lossy
Stream size : 1.15 GiB (8%)
Title : Original
Language : French
Default : No
Forced : No

Menu
00:00:00.000 : en:00:00:00.000
00:09:12.625 : en:00:09:12.625
00:19:03.583 : en:00:19:03.583
00:26:45.333 : en:00:26:45.333
00:38:31.833 : en:00:38:31.833
00:49:59.042 : en:00:49:59.042
00:59:11.792 : en:00:59:11.792
01:06:29.917 : en:01:06:29.917
01:14:33.958 : en:01:14:33.958
01:22:52.167 : en:01:22:52.167
01:30:25.083 : en:01:30:25.083
01:41:17.042 : en:01:41:17.042
01:45:20.000 : en:01:45:20.000
Скріншоти



Джерело: &
За запис з Тб дякую пану krigg070 за синхронізацію пану Arsenfpu


Срібний реліз (на рейтинг впливає 50% завантаженого)
 Трекер:    Зареєстрований   

Завантажити / скачати фільм українською



відео для новачків



 Зареєстрований:   2017-02-11 10:55
 Розмір:   13.86 GB 
 Оцінка фільму:   10/10 (Голосів: 1)
   
Інші релізи
   Один шанс на двох / 1 chance sur 2 (1998) Ukr/Fra Arsenfpu  1 / 0   1.74 GB   2016-10-12 19:55 
Ваш часовий пояс: GMT + 2 Години

Нова тема   Відповісти