Нічого не бачу, нічого не чую / See No Evil, Hear No Evil (1989) Remux 1080p Ukr/Eng | Sub Eng

Нові коментарі

Нова тема   Відповісти
Останній раз роздавалося vazil (2017-10-18)
Автор Повідомлення
staf777 
Відео Гуртом - підтримка та поширення
Відео Гуртом - підтримка та поширення


З нами з: 16.11.16
Востаннє: 11.09.17
Повідомлень: 522

2017-02-10 14:35  
Нічого не бачу, нічого не чую / See No Evil, Hear No Evil (1989) Remux 1080p Ukr/Eng | Sub Eng

Нічого не бачу, нічого не чую / See No Evil, Hear No Evil (1989) Remux 1080p Ukr/Eng | Sub Eng


Жанр: комедія, кримінальний
Країна: США



Кінокомпанія: TriStar Pictures
Режисер: Артур Гіллер (Arthur Hiller)
Актори: Річард Праєр (Richard Pryor), Джин Вайлдер (Gene Wilder), Джоан Северенс (Joan Severance), Кевін Спейсі (Kevin Spacey), Ентоні Зерба (Anthony Zerbe) та інші.

Сюжет:
На очах Дейва відбувається вбивство, але він глухий. Воллі все чув, але він сліпий. Разом вони - ідеальні свідки злочину ... для самих злочинців і єдині підозрювані для поліцейських.


Тривалість: 01:42:04
Якість: Remux 1080p
Відео:
кодек:
розмір кадру: 1920x1080
бітрейт: 24,9 Mб/с

Аудіо # 1:
мова: українська
переклад: двоголосий закадровий
кодек: -HD 2.0
бітрейт: 1024 кб/с

Аудіо # 2:
мова: англійська
переклад: оригінал
кодек: -HD 2.0
бітрейт: 1024 кб/с

Субтитри:
мова: англійська
тип: пререндерні
формат: PGS
Info
General
Unique ID : 218972469638097273538494899420469534743 (0xA4BC9049E0028E96A0EEBB8A3E6A2017)
Complete name : P:\HD українською » Фільми в HD\Комедія\See No Evil, Hear No Evil (1989) [Ukr,Eng sub.Ukr,Eng] Remux 1080p [Hurtom].
Format :
Format version : Version 4 / Version 2
File size : 19.2 GiB
Duration : 1 h 42 min
Overall bit rate mode : Variable
Overall bit rate : 27.0 Mb/s
Movie name : See No Evil, Hear No Evil (1989) [Ukr,Eng sub.Ukr,Eng] Remux 1080p [Hurtom]
Encoded date : UTC 2017-02-10 22:16:42
Writing application : mkvmerge v9.8.0 ('Kuglblids') 64bit
Writing library : libebml v1.3.4 + libmatroska v1.4.5

Video
ID : 1
Format : AVC
Format/Info : Advanced Video Codec
Format profile : High[email protected]
Format settings, CABAC : Yes
Format settings, ReFrames : 2 frames
Codec ID : V_MPEG4/ISO/AVC
Duration : 1 h 42 min
Bit rate mode : Variable
Bit rate : 24.9 Mb/s
Width : 1 920 pixels
Height : 1 080 pixels
Display aspect ratio : 16:9
Frame rate mode : Constant
Frame rate : 23.976 (24000/1001) FPS
Color space : YUV
Chroma subsampling : 4:2:0
Bit depth : 8 bits
Scan type : Progressive
Bits/(Pixel*Frame) : 0.501
Stream size : 17.8 GiB (92%)
Default : Yes
Forced : No

Audio #1
ID : 2
Format :
Format/Info : Digital Theater Systems
Format profile : MA / Core
Mode : 16
Format settings, Endianness : Big
Codec ID : A_DTS
Duration : 1 h 42 min
Bit rate mode : Variable / Constant
Bit rate : 1 024 kb/s / 768 kb/s
Channel(s) : 2 channels
Channel positions : Front: L R
Sampling rate : 48.0 kHz
Frame rate : 93.750 FPS (512 spf)
Bit depth : 16 bits
Compression mode : Lossless / Lossy
Stream size : 757 MiB (4%)
Language : Ukrainian
Default : Yes
Forced : Yes

Audio #2
ID : 3
Format :
Format/Info : Digital Theater Systems
Format profile : MA / Core
Mode : 16
Format settings, Endianness : Big
Codec ID : A_DTS
Duration : 1 h 42 min
Bit rate mode : Variable / Constant
Bit rate : 1 024 kb/s / 768 kb/s
Channel(s) : 2 channels
Channel positions : Front: L R
Sampling rate : 48.0 kHz
Frame rate : 93.750 FPS (512 spf)
Bit depth : 16 bits
Compression mode : Lossless / Lossy
Stream size : 743 MiB (4%)
Language : English
Default : No
Forced : No

Text
ID : 4
Format : PGS
Muxing mode : zlib
Codec ID : S_HDMV/PGS
Codec ID/Info : Picture based subtitle format used on BDs/HD-DVDs
Duration : 1 h 41 min
Bit rate : 11.7 kb/s
Count of elements : 3228
Stream size : 8.47 MiB (0%)
Language : English
Default : No
Forced : No
Скріншоти



Джерело: &


Золотий реліз (завантажене не впливає на рейтинг)
 Трекер:    Зареєстрований   

Завантажити / скачати фільм українською



відео для новачків



 Зареєстрований:   2017-02-11 09:20
 Розмір:   19.24 GB 
 Оцінка фільму:   9.5/10 (Голосів: 6)
   
igor911 
Відео Гуртом
Відео Гуртом


З нами з: 18.01.08
Востаннє: 18.10.17
Повідомлень: 7910

2017-02-11 10:30  
staf777, чому не додав доріжку від 1+1? https://toloka.to/t50218
_Andruha_ 
Свій


З нами з: 20.02.10
Востаннє: 16.10.17
Повідомлень: 56

2017-05-16 17:31  
Будь ласка станьте хтось на роздачу, вже другий день не можу завантажити.
_Andruha_ 
Свій


З нами з: 20.02.10
Востаннє: 16.10.17
Повідомлень: 56

2017-05-19 20:07  
Бачу ніхто не збирається роздавати...нажаль..
igor911 
Відео Гуртом
Відео Гуртом


З нами з: 18.01.08
Востаннє: 18.10.17
Повідомлень: 7910

2017-05-19 20:08  
_Andruha_
Цитата:
Останній раз роздавалося vazil (2017-05-19)

Ваш часовий пояс: GMT + 2 Години

Нова тема   Відповісти