Запасний План / The Back-up Plan (2010) 1080p Ukr/Eng | Sub Eng

Нові коментарі

Нова тема   Відповісти
Автор Повідомлення
staf777 
Відео Гуртом - підтримка та поширення
Відео Гуртом - підтримка та поширення


З нами з: 16.11.16
Востаннє: 06.11.17
Повідомлень: 522

2017-02-10 12:22  
Запасний План / The Back-up Plan (2010) 1080p Ukr/Eng | Sub Eng

Запасний План / The Back-up Plan (2010) 1080p Ukr/Eng | Sub Eng


Жанр: романтична комедія
Країна: США



Кінокомпанія: CBS Films
Режисер: Алан Пол
Актори: Дженніфер Лопез, Алекс О `Лахлан, Міхаелла Уоткінс, Ерік Крістіан Олсен, Ентоні Андерсон, Норін ДеВулф, Мелісса МакКарті, Том Бослі, Денніл Харріс

Сюжет:
Кожній жінці за тридцять, що мріє стати матір'ю, бажано мати запасний план, і в самотньої Зої такий план був. Зневірившись зустріти коханого, вона вирішила вдатися до делікатної процедури штучного запліднення. І того ж дня, коли тест на вагітність виявився позитивним, вона зустріла Стена. Але як розповісти йому про свій "цікавий стан" і не сполохати почуттів, що тільки-но почали зароджуватись.


Тривалість: 01:44:14
Якість: 1080p
Відео:
кодек:
розмір кадру: 1920x816
бітрейт: 16800 кб/с

Аудіо # 1:
мова: українська
переклад: професійний дубльований
кодек: 5.1
бітрейт: 640 кб/с

Аудіо # 2:
мова: англійська
переклад: оригінал
кодек: 5.1
бітрейт: 1509 кб/с

Субтитри:
мова: англійська
тип: програмні (м'які)
формат: *.srt
Info
General
Unique ID : 225940446158329807222708156088847128872 (0xA9FA8C0E1EB79E51BC1131A0855B5928)
Complete name : P:\HD українською » Фільми в HD\Комедія\The Back-up Plan (2010) [Ukr,Eng sub.Eng] 1080p [Hurtom].
Format :
Format version : Version 4 / Version 2
File size : 13.8 GiB
Duration : 1 h 44 min
Overall bit rate : 19.0 Mb/s
Movie name : The Back-up Plan (2010) [Ukr,Eng sub.Eng] 1080p [Hurtom]
Encoded date : UTC 2017-02-11 08:06:42
Writing application : mkvmerge v9.8.0 ('Kuglblids') 64bit
Writing library : libebml v1.3.4 + libmatroska v1.4.5

Video
ID : 1
Format : AVC
Format/Info : Advanced Video Codec
Format profile : [email protected]
Format settings, CABAC : Yes
Format settings, ReFrames : 5 frames
Codec ID : V_MPEG4/ISO/AVC
Duration : 1 h 44 min
Bit rate : 16.8 Mb/s
Width : 1 920 pixels
Height : 816 pixels
Display aspect ratio : 2.35:1
Frame rate mode : Constant
Frame rate : 23.976 (24000/1001) FPS
Color space : YUV
Chroma subsampling : 4:2:0
Bit depth : 8 bits
Scan type : Progressive
Bits/(Pixel*Frame) : 0.448
Stream size : 12.3 GiB (89%)
Writing library : core 142 r2431kMod ac76440
Encoding settings : cabac=1 / ref=5 / deblock=1:-3:-3 / analyse=0x3:0x133 / me=umh / subme=10 / psy=1 / fade_compensate=0.00 / psy_rd=1.05:0.00 / mixed_ref=1 / me_range=24 / chroma_me=1 / trellis=2 / 8x8dct=1 / cqm=0 / deadzone=21,11 / fast_pskip=0 / chroma_qp_offset=-2 / threads=24 / lookahead_threads=6 / sliced_threads=0 / nr=0 / decimate=0 / interlaced=0 / bluray_compat=0 / constrained_intra=0 / fgo=0 / bframes=10 / b_pyramid=2 / b_adapt=2 / b_bias=0 / direct=3 / weightb=1 / open_gop=0 / weightp=2 / keyint=250 / keyint_min=23 / scenecut=40 / intra_refresh=0 / rc=crf / mbtree=0 / crf=17.6000 / qcomp=0.75 / qpmin=0 / qpmax=69 / qpstep=4 / ip_ratio=1.20 / pb_ratio=1.20 / aq=3:0.70
Language : English
Default : Yes
Forced : No

Audio #1
ID : 2
Format : AC-3
Format/Info : Audio Coding 3
Mode extension : CM (complete main)
Format settings, Endianness : Big
Codec ID : A_AC3
Duration : 1 h 44 min
Bit rate mode : Constant
Bit rate : 640 kb/s
Channel(s) : 6 channels
Channel positions : Front: L C R, Side: L R, LFE
Sampling rate : 48.0 kHz
Frame rate : 31.250 FPS (1536 spf)
Bit depth : 16 bits
Compression mode : Lossy
Stream size : 477 MiB (3%)
Title : |Дубляж, Blu-ray CEE|
Language : Ukrainian
Default : Yes
Forced : Yes

Audio #2
ID : 3
Format :
Format/Info : Digital Theater Systems
Mode : 16
Format settings, Endianness : Big
Codec ID : A_DTS
Duration : 1 h 44 min
Bit rate mode : Constant
Bit rate : 1 509 kb/s
Channel(s) : 6 channels
Channel positions : Front: L C R, Side: L R, LFE
Sampling rate : 48.0 kHz
Frame rate : 93.750 FPS (512 spf)
Bit depth : 24 bits
Compression mode : Lossy
Stream size : 1.10 GiB (8%)
Language : English
Default : No
Forced : No

Text
ID : 4
Format : UTF-8
Codec ID : S_TEXT/UTF8
Codec ID/Info : UTF-8 Plain Text
Duration : 1 h 39 min
Bit rate : 64 b/s
Count of elements : 1342
Stream size : 47.0 KiB (0%)
Language : English
Default : No
Forced : No

Menu
00:00:00.000 : en:00:00:00.000
00:06:42.944 : en:00:06:42.944
00:14:02.258 : en:00:14:02.258
00:21:47.139 : en:00:21:47.139
00:26:19.286 : en:00:26:19.286
00:31:49.741 : en:00:31:49.741
00:39:25.196 : en:00:39:25.196
00:45:40.863 : en:00:45:40.863
00:50:55.010 : en:00:50:55.010
00:57:05.047 : en:00:57:05.047
01:03:26.636 : en:01:03:26.636
01:09:56.609 : en:01:09:56.609
01:14:20.706 : en:01:14:20.706
01:22:11.635 : en:01:22:11.635
01:27:08.181 : en:01:27:08.181
01:31:52.924 : en:01:31:52.924
Скріншоти






Джерело: &
Особиста оцінка: 0 - не дивився


 Трекер:    Зареєстрований   

Завантажити / скачати фільм українською



відео для новачків



 Зареєстрований:   2017-02-11 11:44
 Розмір:   13.82 GB 
 Оцінка фільму:   5.8/10 (Голосів: 6)
   
Інші релізи
   Запасний План / The Back-up Plan (2010) 720p Ukr/Eng | Sub Eng 11FrYkT  1 / 0   5.46 GB   2012-09-13 15:55 
   Запасний План / The Back-up Plan (2010) patriot2305  2 / 0   1.46 GB   2012-07-03 15:18 
   Запасний План / The Back-up Plan (2010) Ukr/Eng | Sub Eng karvai0  4 / 0   2.18 GB   2011-04-24 16:32 
Ваш часовий пояс: GMT + 2 Години

Нова тема   Відповісти