Поміж янголом і бісом / Les Anges Gardiens (1995) 1080р 2xUkr/Fra | Sub Fra/Eng

Нові коментарі

Нова тема   Відповісти
Останній раз роздавалося staf777 (2017-08-16)
Автор Повідомлення
staf777 
Відео Гуртом - підтримка та поширення
Відео Гуртом - підтримка та поширення


З нами з: 16.11.16
Востаннє: 16.08.17
Повідомлень: 522

2017-02-10 00:51  
Поміж янголом і бісом / Les Anges Gardiens (1995) 1080р 2xUkr/Fra | Sub Fra/Eng

Поміж янголом і бісом / Les Anges Gardiens (1995) 1080р 2xUkr/Fra | Sub Fra/Eng


Жанр: комедія, бойовик, кримінальний
Країна: Франція



Кінокомпанія: Funny Films, Gaumont International, TF1 Films Production, Vaudeville Productions
Режисер: Жан-Марі Пуаре / Jean-Marie Poire
Актори: Жерар Депард’є / Gerard Depardieu, Крістіан Клав'є / Christian Clavier, Єва Грімальді / Eva Grimaldi, Ів Рен'є / Yves Renier, Франкі Шин / Frankie Chin, Ісе Тран / Ysé Tran, Дженніфер Херрера / Jennifer Herrera, Ева Герцігова / Eva Herzigova та інші.

Сюжет:
Герою Жерара Депардьє, успішному власнику кабаре зі стриптизом, дзвонить з Гонконгу товариш з бурхливого минулого, в якому їх пов'язує боргом солдатської дружби своєчасно кинута граната. Товариш просить його взяти 20 відсотків від суми в 30 млн. доларів та семирічного хлопчика-китайця, щоб доставити до матері в Париж. Договорити побратим не встигає - місцеві мафіозі, що женуться за ним, розмазують його по стіні вантажівкою...

Головний герой вилітає в Гонконг, знаходить хлопчика, і тепер вже за ним починається шалене полювання. Він примудряється отримати гроші в банку та вивезти хлопчика за допомогою священика, що супроводжує в притулок важких для виховання дітей. Гроші ж підкладає доброму католику в щоденник з зображенням Св. Катерини. Бойові дії переміщуються на територію Франції...


Тривалість: 01:47:02
Якість: 1080р
Відео:
кодек:
розмір кадру: 1920x816
бітрейт: 12 Mб/с

Аудіо # 1:
мова: українська
переклад: багатоголосий закадровий
кодек: 2.0
бітрейт: 192 кб/с

Аудіо # 2:
мова: українська
переклад: багатоголосий закадровий
кодек: 2.0
бітрейт: 192 кб/с

Аудіо # 3:
мова: французька
переклад: оригінал
кодек: 5.1
бітрейт: 448 кб/с

Субтитри:
мова: французька
тип: програмні (м'які)
формат: *.srt

Субтитри:
мова: англійська
тип: програмні (м'які)
формат: *.srt
Info
General
Unique ID : 253301395804521009989623835839172687087 (0xBE90130635A89A76B012644E81FFB4EF)
Complete name : P:\HD українською » Фільми в HD\Комедія\Les Anges Gardiens (1995) [2xUkr,Fra sub.Fra,Eng] 1080p [Hurtom].
Format :
Format version : Version 4 / Version 2
File size : 9.80 GiB
Duration : 1h 47mn
Overall bit rate mode : Variable
Overall bit rate : 13.1 Mbps
Movie name : Les Anges Gardiens (1995) [2xUkr,Fra sub.Fra,Eng] 1080p [Hurtom]
Encoded date : UTC 2017-02-10 13:57:05
Writing application : mkvmerge v9.8.0 ('Kuglblids') 64bit
Writing library : libebml v1.3.4 + libmatroska v1.4.5
DURATION : 01:46:11.126000000
NUMBER_OF_FRAMES : 1873
NUMBER_OF_BYTES : 56417
_STATISTICS_WRITING_APP : mkvmerge v9.8.0 ('Kuglblids') 64bit
_STATISTICS_WRITING_DATE_UTC : 2017-02-10 13:57:05
_STATISTICS_TAGS : BPS DURATION NUMBER_OF_FRAMES NUMBER_OF_BYTES

Video
ID : 1
Format : AVC
Format/Info : Advanced Video Codec
Format profile : [email protected]
Format settings, CABAC : Yes
Format settings, ReFrames : 4 frames
Codec ID : V_MPEG4/ISO/AVC
Duration : 1h 47mn
Bit rate mode : Variable
Bit rate : 12.0 Mbps
Maximum bit rate : 15.0 Mbps
Width : 1 920 pixels
Height : 816 pixels
Display aspect ratio : 2.35:1
Frame rate mode : Constant
Frame rate : 25.000 fps
Color space : YUV
Chroma subsampling : 4:2:0
Bit depth : 8 bits
Scan type : Progressive
Bits/(Pixel*Frame) : 0.307
Stream size : 8.98 GiB (92%)
Title : 1080p (Amazon)
Writing library : core 148 r2623 d5b2374
Encoding settings : cabac=1 / ref=4 / deblock=1:-1:-1 / analyse=0x3:0x133 / me=umh / subme=9 / psy=1 / psy_rd=1.00:0.15 / mixed_ref=1 / me_range=24 / chroma_me=1 / trellis=2 / 8x8dct=1 / cqm=0 / deadzone=21,11 / fast_pskip=1 / chroma_qp_offset=-3 / threads=25 / lookahead_threads=4 / sliced_threads=0 / nr=150 / decimate=1 / interlaced=0 / bluray_compat=0 / constrained_intra=0 / bframes=8 / b_pyramid=2 / b_adapt=2 / b_bias=0 / direct=3 / weightb=1 / open_gop=0 / weightp=2 / keyint=125 / keyint_min=63 / scenecut=0 / intra_refresh=0 / rc_lookahead=125 / rc=crf / mbtree=1 / crf=18.0 / qcomp=0.60 / qpmin=0 / qpmax=69 / qpstep=4 / vbv_maxrate=15000 / vbv_bufsize=31250 / crf_max=0.0 / nal_hrd=vbr / filler=0 / ip_ratio=1.40 / aq=3:1.00
Language : French
Default : Yes
Forced : No
Color range : Limited
Color primaries : BT.709
Transfer characteristics : BT.709
Matrix coefficients : BT.709

Audio #1
ID : 2
Format : AC-3
Format/Info : Audio Coding 3
Mode extension : CM (complete main)
Format settings, Endianness : Big
Codec ID : A_AC3
Duration : 1h 47mn
Bit rate mode : Constant
Bit rate : 192 Kbps
Channel(s) : 2 channels
Channel positions : Front: L R
Sampling rate : 48.0 KHz
Bit depth : 16 bits
Compression mode : Lossy
Stream size : 147 MiB (1%)
Title : 2.0 192Kbps (Профессиональный, многоголосый - 2+2)
Language : Ukrainian
Default : Yes
Forced : Yes

Audio #2
ID : 3
Format : AC-3
Format/Info : Audio Coding 3
Mode extension : CM (complete main)
Format settings, Endianness : Big
Codec ID : A_AC3
Duration : 1h 47mn
Bit rate mode : Constant
Bit rate : 192 Kbps
Channel(s) : 2 channels
Channel positions : Front: L R
Sampling rate : 48.0 KHz
Bit depth : 16 bits
Compression mode : Lossy
Stream size : 147 MiB (1%)
Title : 2.0 192Kbps (Профессиональный, многоголосый - Enter-фільм)
Language : Ukrainian
Default : No
Forced : Yes

Audio #3
ID : 4
Format : AC-3
Format/Info : Audio Coding 3
Mode extension : CM (complete main)
Format settings, Endianness : Big
Codec ID : A_AC3
Duration : 1h 47mn
Bit rate mode : Constant
Bit rate : 448 Kbps
Channel(s) : 6 channels
Channel positions : Front: L C R, Side: L R, LFE
Sampling rate : 48.0 KHz
Bit depth : 16 bits
Compression mode : Lossy
Stream size : 343 MiB (3%)
Title : 5.1 448Kbps (Оригинал)
Language : French
Default : No
Forced : No

Text #1
ID : 5
Format : UTF-8
Codec ID : S_TEXT/UTF8
Codec ID/Info : UTF-8 Plain Text
Language : French
Default : No
Forced : No

Text #2
ID : 6
Format : UTF-8
Codec ID : S_TEXT/UTF8
Codec ID/Info : UTF-8 Plain Text
Language : English
Default : No
Forced : No

Menu
00:00:00.000 : fr:Le voleur
00:02:25.840 : fr:GÃnÃrique de dÃbut
00:05:32.400 : fr:Ma poule
00:08:46.000 : fr:Père Tarain
00:11:24.080 : fr:Le gosse
00:13:40.200 : fr:Poursuite dans Hong-Kong
00:16:59.080 : fr:Un petit service
00:24:03.680 : fr:Les bons de caisse
00:29:00.400 : fr:Embarquement immÃdiat
00:32:56.040 : fr:Retour en première
00:42:49.680 : fr:VÃrità et mensonges
00:49:46.440 : fr:La bonne conscience
00:52:47.960 : fr:Vade retro Satanas
00:59:20.560 : fr:Un curà dans le bastringue
01:04:31.720 : fr:Les triades attaquent
01:07:59.280 : fr:Un pretre extraordinaire
01:14:04.160 : fr:Chez la famille D'HervÃ
01:19:01.400 : fr:L'enlèvement
01:21:46.920 : fr:Schnoufe et compagnie
01:26:44.560 : fr:Les anges gardiens
01:31:55.160 : fr:Lily Wang
01:36:17.720 : fr:Chinese connection
01:39:41.000 : fr:Epilogue
01:42:01.760 : fr:GÃnÃrique de fin
Скріншоти




Джерело: &
Подяка за українські доріжки п.Neo777, п.karvai0, п.Arsenfpu


Срібний реліз (на рейтинг впливає 50% завантаженого)
 Трекер:    Зареєстрований   

Завантажити / скачати фільм українською



відео для новачків



 Зареєстрований:   2017-02-10 17:38
 Розмір:   9.8 GB 
 Оцінка фільму:   5.5/10 (Голосів: 4)
   
Ваш часовий пояс: GMT + 2 Години

Нова тема   Відповісти