Баррі / Barry (2016) 720p Eng | Sub Ukr/Eng

Нові коментарі

Нова тема   Відповісти
Останній раз роздавалося drakka (2020-11-30)
Автор Повідомлення
Anonymous 







2017-02-09 20:18  
Баррі / Barry (2016) 720p Eng | Sub Ukr/Eng

Баррі / Barry (2016) 720p Eng | Sub Ukr/Eng


Жанр: драма, біографічний
Країна: США



Кінокомпанія: Black Bear Pictures, Cinetic Media. Distributed by Netflix
Режисер: Вікрам Ганді
Актори: Девон Террелл, Аня Тейлор-Джой, Джейсон Мітчелл, Ешлі Джадд, Дженна Ельфман, Еллара Колтрейн, Лінус Роуч

Сюжет:
Фільм про юність майбутнього президента США Барака Обами. Приїхавши до Нью-Йорку навчатися в Колумбійському університеті, молодий Баррі намагається віднайти своє я. На цьому непростому шляху він потрапляє у різні спільноти та соціальні прошарки, шукаючи своє місце у цьому світі.


Тривалість: 01:44:09
Якість:
Відео:
кодек:
розмір кадру: 1280 x 536
бітрейт: 4415 кб/с

Аудіо:
мова: англійська
переклад: оригінал
кодек: 5.1
бітрейт: 384 кб/с

Субтитри:
мова: українська
тип: програмні (м'які)
формат: *.


Субтитри:
мова: англійська
тип: програмні (м'які)
формат: *.srt
Info
General
Unique ID : 243538523161843294594904755895068123094 (0xB737D03D66F9413281B4AA5D4AC1DFD6)
Complete name : E:\Barry.2016.720p..DD5.1.
Format :
Format version : Version 4 / Version 2
File size : 3.56 GiB
Duration : 1h 44mn
Overall bit rate : 4 897 Kbps
Movie name : Barry.2016.720p..DD5.1.-FGT
Encoded date : UTC 2017-02-09 18:08:56
Writing application : v8.8.0 ('Wind at my back') 64bit
Writing library : libebml v1.3.3 + v1.4.4
Attachements : cover_land.jpg / small_cover.jpg / small_cover_land.jpg / cover.jpg
DURATION : 01:39:19.480000000
NUMBER_OF_FRAMES : 1175
NUMBER_OF_BYTES : 94037
_STATISTICS_WRITING_APP : v8.8.0 ('Wind at my back') 64bit
_STATISTICS_WRITING_DATE_UTC : 2017-02-09 18:08:56
_STATISTICS_TAGS : BPS DURATION NUMBER_OF_FRAMES NUMBER_OF_BYTES

Video
ID : 1
Format : AVC
Format/Info : Advanced Video Codec
Format profile : [email protected]
Format settings, CABAC : Yes
Format settings, ReFrames : 8 frames
Codec ID : V_MPEG4/ISO/AVC
Duration : 1h 44mn
Bit rate : 4 416 Kbps
Width : 1 280 pixels
Height : 536 pixels
Display aspect ratio : 2.40:1
Frame rate mode : Constant
Frame rate : 23.976 fps
Color space : YUV
Chroma subsampling : 4:2:0
Bit depth : 8 bits
Scan type : Progressive
Bits/(Pixel*Frame) : 0.268
Stream size : 3.21 GiB (90%)
Title : Barry.2016.720p..DD5.1.-FGT
Language : English
Default : Yes
Forced : No
Color range : Limited
Matrix coefficients : BT.709

Audio
ID : 2
Format : AC-3
Format/Info : Audio Coding 3
Mode extension : CM (complete main)
Format settings, Endianness : Big
Codec ID : A_AC3
Duration : 1h 44mn
Bit rate mode : Constant
Bit rate : 384 Kbps
Channel(s) : 6 channels
Channel positions : Front: L C R, Side: L R, LFE
Sampling rate : 48.0 KHz
Bit depth : 16 bits
Compression mode : Lossy
Stream size : 286 MiB (8%)
Title : Barry.2016.720p..DD5.1.-FGT
Language : English
Default : Yes
Forced : No

Text #1
ID : 3
Format :
Codec ID : S_TEXT/
Codec ID/Info : Advanced Sub Station Alpha
Compression mode : Lossless
Title : RobotaGolosom
Language : Ukrainian
Default : Yes
Forced : Yes

Text #2
ID : 4
Format : UTF-8
Codec ID : S_TEXT/UTF8
Codec ID/Info : UTF-8 Plain Text
Default : No
Forced : No
Скріншоти







Трейлер

Трек з трейлеру:

Anthony Hamilton – Soul's on Fire


Джерело: Rarbg
Особиста оцінка: 8 - мені сподобалося


Авторський реліз (завантажувати можна без реєстрації)
 Трекер:    Зареєстрований   

Завантажити / скачати фільм українською



відео для новачків



 Зареєстрований:   2017-02-09 20:18
 Розмір:   3.56 GB 
 Оцінка фільму:   3.1/10 (Голосів: 13)
   
don pedro 
Попереджень: 1
Попереджень: 1 


З нами з: 29.06.11
Востаннє: 30.11.20
Повідомлень: 18200

2017-02-09 20:38  
Культ особи прямо.
Anonymous 







2017-02-09 20:40  
don pedro
ну тоді усі фільми про президентів, політиків, письменників, музикантів , культ особи?

don pedro 
Попереджень: 1
Попереджень: 1 


З нами з: 29.06.11
Востаннє: 30.11.20
Повідомлень: 18200

2017-02-09 20:48  
Anonymous
Якщо про живих людей, то, до певної міри, це і справді так.

bot 
робот


З нами з: 30.09.07
Востаннє: 26.05.05
Повідомлень: 26413

2017-02-09 22:06  
Тему перенесено з Фільми в HD до форуму Фільми


igor911

Fires 
Частий відвідувач


З нами з: 11.07.08
Востаннє: 20.06.20
Повідомлень: 41

2017-04-20 19:19  
Жах...
ksanka45 
Поважний учасник


З нами з: 04.06.11
Востаннє: 22.11.20
Повідомлень: 170

2017-07-10 18:55  
Фільм дуже цікавий. Він не стільки про президента, скільки про молоду людину, яка намагається знайти своє місце у світі. Про людину, яка і не біла, і не чорна. В кінці, звісно, є висновок, що в Америці можна бути не білим чи чорним, а американцем.
Ваш часовий пояс: GMT + 2 Години

Нова тема   Відповісти