Глибоководний горизонт / Deepwater Horizon (2016) 720p-mini (60 fps)

Нові коментарі

Нова тема   Відповісти
Автор Повідомлення
Drool 
VIP


З нами з: 17.04.10
Востаннє: 15.10.18
Повідомлень: 1484

2017-02-09 13:02  
Глибоководний горизонт / Deepwater Horizon (2016) 720p-mini (60 fps)

Глибоководний горизонт / Deepwater Horizon (2016) 720p-mini (60 fps)


Жанр: драма, трилер
Країна: США


Діти до 13 років допускаються на фільм тільки з батьками
Настійне застереження батькам. Деякий матеріал може бути невідповідним для дітей до 13 років. Цей рейтинг показує, що оцінений фільм може бути невідповідним для дітей. Батьки повинні бути особливо обережні, дозволяючи своїм маленьким дітям перегляд. Грубе або тривале насильство відсутнє; сексуальна орієнтація на наготу відсутня; деякі сцени вживання наркотиків можуть бути присутніми; можна почути одиничні вживання грубої сексуальної лексики. Присутня епізодична оголеність (не враховуючи репродуктивні органи). Присутні сексуальні натяки і натяки на гомосексуалізм чи сексуальні збочення.
Кінокомпанія: Lionsgate, Di Bonaventura Pictures
Режисер: Пітер Берг
Актори: Марк Уолберг, Кейт Хадсон, Курт Рассел, Джон Малковіч, Ділан О’Брайен, Ітан Саплі, Джина Родрігез, Дуглас М. Гріффін, Девід Мальдонадо, Бред Ліленд та інші

Сюжет:
Ця стрічка розповість про наслідки вибуху нафтової платформи Deepwater Horizon, що стався 20 квітня 2010 року в Мексиканській затоці в 80 кілометрах від узбережжя штату Луїзіана і став причиною другої за масштабами екологічної катастрофи в історії США.


Тривалість: 01:47:17
Якість: 720p-mini
Відео:
кодек:
розмір кадру: 1280x534
бітрейт: 3131 кб/с
crf: 18.0
кадрів на секунду: 59.940 к/с

Аудіо:
мова: українська
переклад: професійний дубльований
кодек: 2.0
бітрейт: 192 кб/с
Info
Код:
General
Unique ID                                : 181652400474772400532193947732121311702 (0x88A8FAD12F822127101ABC1E17E559D6)
Complete name                            : /mnt/disk_d/Video/Deepwater.Horizon.2016.Ukr.Dub-2.0..720p-mini.60fps.
Format                                   :
Format version                           : Version 4 / Version 2
File size                                : 2.54 GiB
Duration                                 : 1h 47mn
Overall bit rate                         : 3 390 Kbps
Movie name                               : Глибоководний горизонт / Deepwater Horizon (2016) 720p-mini (60 fps) | by NNNB
Encoded date                             : UTC 2017-02-09 09:53:26
Writing application                      : v9.7.1 ('Pandemonium') 64bit
Writing library                          : libebml v1.3.4 + v1.4.5
Attachements                             : cover.png
DURATION                                 : 01:47:17.440000000
NUMBER_OF_FRAMES                         : 201170
NUMBER_OF_BYTES                          : 154498560
_STATISTICS_WRITING_APP                  : v9.7.1 ('Pandemonium') 64bit
_STATISTICS_WRITING_DATE_UTC             : 2017-02-09 09:53:26
_STATISTICS_TAGS                         : BPS DURATION NUMBER_OF_FRAMES NUMBER_OF_BYTES

Video
ID                                       : 1
Format                                   : AVC
Format/Info                              : Advanced Video Codec
Format profile                           : [email protected]
Format settings, CABAC                   : Yes
Format settings, ReFrames                : 9 frames
Codec ID                                 : V_MPEG4/ISO/AVC
Duration                                 : 1h 47mn
Bit rate                                 : 3 131 Kbps
Width                                    : 1 280 pixels
Height                                   : 534 pixels
Display aspect ratio                     : 2.40:1
Frame rate mode                          : Constant
Frame rate                               : 59.880 fps
Original frame rate                      : 59.940 fps
Color space                              : YUV
Chroma subsampling                       : 4:2:0
Bit depth                                : 8 bits
Scan type                                : Progressive
Bits/(Pixel*Frame)                       : 0.076
Stream size                              : 2.35 GiB (92%)
Title                                    : Глибоководний горизонт / Deepwater Horizon (2016) 720p-mini (60 fps) | by NNNB
Writing library                          : core 146 r2538 121396c
Encoding settings                        : cabac=1 / ref=9 / deblock=1:0:0 / analyse=0x3:0x113 / me=umh / subme=10 / psy=1 / psy_rd=1.00:0.00 / mixed_ref=1 / me_range=24 / chroma_me=1 / trellis=2 / 8x8dct=1 / cqm=0 / deadzone=21,11 / fast_pskip=0 / chroma_qp_offset=-2 / threads=12 / lookahead_threads=1 / sliced_threads=0 / nr=0 / decimate=1 / interlaced=0 / bluray_compat=0 / constrained_intra=0 / bframes=5 / b_pyramid=2 / b_adapt=2 / b_bias=0 / direct=3 / weightb=1 / open_gop=0 / weightp=2 / keyint=250 / keyint_min=25 / scenecut=40 / intra_refresh=0 / rc_lookahead=40 / rc=crf / mbtree=0 / crf=18.0 / qcomp=0.60 / qpmin=0 / qpmax=69 / qpstep=4 / vbv_maxrate=14000 / vbv_bufsize=14000 / crf_max=0.0 / nal_hrd=none / filler=0 / ip_ratio=1.40 / pb_ratio=1.30 / aq=3:0.70
Default                                  : Yes
Forced                                   : Yes
DURATION                                 : 01:47:17.381000000
NUMBER_OF_FRAMES                         : 385857
NUMBER_OF_BYTES                          : 2569918426
_STATISTICS_WRITING_APP                  : v9.7.1 ('Pandemonium') 64bit
_STATISTICS_WRITING_DATE_UTC             : 2017-02-09 09:53:26
_STATISTICS_TAGS                         : BPS DURATION NUMBER_OF_FRAMES NUMBER_OF_BYTES

Audio
ID                                       : 2
Format                                   : AC-3
Format/Info                              : Audio Coding 3
Mode extension                           : CM (complete main)
Format settings, Endianness              : Big
Codec ID                                 : A_AC3
Duration                                 : 1h 47mn
Bit rate mode                            : Constant
Bit rate                                 : 192 Kbps
Channel(s)                               : 2 channels
Channel positions                        : Front: L R
Sampling rate                            : 48.0 KHz
Compression mode                         : Lossy
Stream size                              : 147 MiB (6%)
Title                                    : Рідна мова | 2.0 192 kbps 48 kHz
Language                                 : Ukrainian
Default                                  : Yes
Forced                                   : Yes
Скріншоти


Джерело відеоряду:
Особиста оцінка: 10 - без зайвих вагань рекомендую всім!


 Трекер:    Зареєстрований   

Завантажити / скачати фільм українською



відео для новачків



 Зареєстрований:   2017-02-09 13:34
 Розмір:   2.54 GB 
 Оцінка фільму:   9/10 (Голосів: 24)
   
mukhaboyka 
Новенький


З нами з: 30.11.15
Востаннє: 14.10.18
Повідомлень: 17

2017-02-10 22:20  
Пане Drool, а підскажіть будь-ласка, якщо знайти 1080p 60fps і додати звичайну укр аудіо дорогу то буде норм? чи треба дорога з ріпу у 60 fps?

Чи може просто є варіант на Remux (чи ) з 60 fps ?)

Drool 
VIP


З нами з: 17.04.10
Востаннє: 15.10.18
Повідомлень: 1484

2017-02-12 11:10  
Якщо тривалість однакова - доріжка повинна підійти.
kabanchik_v 
Частий відвідувач


З нами з: 09.05.13
Востаннє: 15.10.18
Повідомлень: 29

2017-03-08 12:05  
Викладіть будь-ласка розміром до 1,5 Гб з оригінальною доріжкою, субтитрами та у форматі avi.
Дякую

Відьмачечок 
Свій


З нами з: 17.05.11
Востаннє: 15.10.18
Повідомлень: 98

2017-04-02 01:42  
Мабуть найкраща стрічка що дивився, з жанру фільмів-катастроф, та ще й на реальних подіях відзнятий.
Ваш часовий пояс: GMT + 2 Години

Нова тема   Відповісти