Петля часу / Looper (2012) Remux 1080p 2xUkr/Eng | Sub Eng

Нові коментарі

Нова тема   Відповісти
Автор Повідомлення
staf777 
Попереджень: 1
Попереджень: 1 


З нами з: 16.11.16
Востаннє: 16.12.18
Повідомлень: 1930

2017-02-08 16:39  
Петля часу / Looper (2012) Remux 1080p 2xUkr/Eng | Sub Eng

Петля часу / Looper (2012) Remux 1080p 2xUkr/Eng | Sub Eng
Оригінальна обкладинка:

Петля часу / Looper (2012) Remux 1080p 2xUkr/Eng | Sub Eng
Жанр: екшн, кримінальний, фантастика, трилер
Країна: США, Китай



Кінокомпанія: Endgame Entertainment, DMG Entertainment, FilmNation Entertainment, Ram Bergman Productions
Режисер: Раян Джонсон
Актори: Джозеф Ґордон-Левіт, Брюс Вілліс, Емілі Блант, Пол Дано, Ной Сеґан, Пайпер Перабо, Джефф Деніелс та інші

Сюжет:
В недалекому майбутньому, де стали можливі подорожі в часі, деяка корпорація прибирає небажаних людей, відправляючи їх у минуле в пластикових пакетах. Завдання приймаючої сторони — всадити жертві кулю в голову, стерши тим самим нещасного з історії. Все йде гладко до тих пір, поки головний герой не розпаковує черговий пакет, знаходячи в ньому... самого себе з майбутнього.


Тривалість: 01:58:53
Якість: Remux 1080p
Відео:
кодек:
розмір кадру: 1920x1080
бітрейт: 31,8 Mб/с

Аудіо # 1:
мова: українська
переклад: багатоголосий закадровий
кодек: -HD MA 5.1
бітрейт: 2105 кб/с

Аудіо # 2:
мова: українська
переклад: багатоголосий закадровий
кодек: 2.0
бітрейт: 192 кб/с

Аудіо # 3:
мова: українська
переклад: багатоголосий закадровий
кодек: 5.1
бітрейт: 448 кб/с

Аудіо # 4:
мова: англійська
переклад: оригінал
кодек: -HD MA 5.1
бітрейт: 3650 кб/с

Аудіо # 5:
мова: англійська
переклад: описова
кодек: 5.1
бітрейт: 640 кб/с

Аудіо # 6:
мова: англійська
переклад: оригінал (коментарі?)
кодек: 2.0
бітрейт: 192 кб/с

Субтитри #1-2:
мова: англійська (повні, SDH)
тип: програмні (м'які)
формат: *.srt
Info
General
Unique ID : 333676491323194747171670702416281544367 (0xFB07C12FF061414232E6A21A2F2126AF)
Complete name : P:\HD українською » Фільми в HD\Фантастика\Looper (2012) [2xUkr] [Eng] Remux 1080p [Hurtom].
Format :
Format version : Version 4 / Version 2
File size : 32.5 GiB
Duration : 1 h 58 min
Overall bit rate mode : Variable
Overall bit rate : 39.1 Mb/s
Movie name : Looper (2012) [2xUkr] [Eng] Remux 1080p [Hurtom]
Encoded date : UTC 2018-12-08 16:37:56
Writing application : v24.0.0 ('Beyond The Pale') 64-bit
Writing library : libebml v1.3.6 + v1.4.9
Cover : Yes
Attachments : cover.png

Video
ID : 1
Format : AVC
Format/Info : Advanced Video Codec
Format profile : [email protected]
Format settings : CABAC / 4 Ref Frames
Format settings, CABAC : Yes
Format settings, ReFrames : 4 frames
Codec ID : V_MPEG4/ISO/AVC
Duration : 1 h 58 min
Bit rate mode : Variable
Bit rate : 31.8 Mb/s
Maximum bit rate : 37.0 Mb/s
Width : 1 920 pixels
Height : 1 080 pixels
Display aspect ratio : 16:9
Frame rate mode : Constant
Frame rate : 23.976 (24000/1001) FPS
Color space : YUV
Chroma subsampling : 4:2:0
Bit depth : 8 bits
Scan type : Progressive
Bits/(Pixel*Frame) : 0.641
Stream size : 26.4 GiB (81%)
Default : Yes
Forced : No

Audio #1
ID : 2
Format :
Format/Info : Digital Theater Systems
Format profile : MA / Core
Codec ID : A_DTS
Duration : 1 h 58 min
Bit rate mode : Variable / Constant
Bit rate : 2 105 kb/s / 1 509 kb/s
Channel(s) : 6 channels
Channel positions : Front: L C R, Side: L R, LFE
Sampling rate : 48.0 kHz
Frame rate : 93.750 FPS (512 SPF)
Bit depth : 16 bits
Compression mode : Lossless / Lossy
Stream size : 1.75 GiB (5%)
Language : Ukrainian
Default : Yes
Forced : Yes

Audio #2
ID : 3
Format : AC-3
Format/Info : Audio Coding 3
Codec ID : A_AC3
Duration : 1 h 58 min
Bit rate mode : Constant
Bit rate : 192 kb/s
Channel(s) : 2 channels
Channel positions : Front: L R
Sampling rate : 48.0 kHz
Frame rate : 31.250 FPS (1536 SPF)
Bit depth : 16 bits
Compression mode : Lossy
Stream size : 163 MiB (0%)
Title : [Ukr-Mvo-Cine]
Language : Ukrainian
Service kind : Complete Main
Default : No
Forced : No

Audio #3
ID : 4
Format : AC-3
Format/Info : Audio Coding 3
Codec ID : A_AC3
Duration : 1 h 58 min
Bit rate mode : Constant
Bit rate : 448 kb/s
Channel(s) : 6 channels
Channel positions : Front: L C R, Side: L R, LFE
Sampling rate : 48.0 kHz
Frame rate : 31.250 FPS (1536 SPF)
Bit depth : 16 bits
Compression mode : Lossy
Stream size : 381 MiB (1%)
Language : Ukrainian
Service kind : Complete Main
Default : No
Forced : No

Audio #4
ID : 5
Format :
Format/Info : Digital Theater Systems
Format profile : MA / Core
Codec ID : A_DTS
Duration : 1 h 58 min
Bit rate mode : Variable / Constant
Bit rate : 3 650 kb/s / 1 509 kb/s
Channel(s) : 6 channels
Channel positions : Front: L C R, Side: L R, LFE
Sampling rate : 48.0 kHz
Frame rate : 93.750 FPS (512 SPF)
Bit depth : 24 bits
Compression mode : Lossless / Lossy
Stream size : 3.03 GiB (9%)
Language : English
Default : No
Forced : No

Audio #5
ID : 6
Format : AC-3
Format/Info : Audio Coding 3
Codec ID : A_AC3
Duration : 1 h 58 min
Bit rate mode : Constant
Bit rate : 640 kb/s
Channel(s) : 6 channels
Channel positions : Front: L C R, Side: L R, LFE
Sampling rate : 48.0 kHz
Frame rate : 31.250 FPS (1536 SPF)
Bit depth : 16 bits
Compression mode : Lossy
Stream size : 544 MiB (2%)
Language : English
Service kind : Complete Main
Default : No
Forced : No

Audio #6
ID : 7
Format : AC-3
Format/Info : Audio Coding 3
Codec ID : A_AC3
Duration : 1 h 58 min
Bit rate mode : Constant
Bit rate : 192 kb/s
Channel(s) : 2 channels
Channel positions : Front: L R
Sampling rate : 48.0 kHz
Frame rate : 31.250 FPS (1536 SPF)
Bit depth : 16 bits
Compression mode : Lossy
Stream size : 163 MiB (0%)
Language : English
Service kind : Complete Main
Default : No
Forced : No

Text #1
ID : 8
Format : UTF-8
Codec ID : S_TEXT/UTF8
Codec ID/Info : UTF-8 Plain Text
Duration : 1 h 47 min
Bit rate : 39 b/s
Count of elements : 904
Stream size : 30.6 KiB (0%)
Language : English
Default : No
Forced : No

Text #2
ID : 9
Format : UTF-8
Codec ID : S_TEXT/UTF8
Codec ID/Info : UTF-8 Plain Text
Duration : 1 h 53 min
Bit rate : 45 b/s
Count of elements : 1205
Stream size : 37.4 KiB (0%)
Title : SDH
Language : English
Default : No
Forced : No







Джерело: &
Особиста оцінка: 0 - не дивився
ЗАЛИШАЙТЕСЬ ЯКОМОГА ДОВШЕ НА РОЗДАЧІ!

СКАЧАВ САМ - ДАЙ СКАЧАТИ ІНШИМ



Золотий реліз (завантажене не впливає на рейтинг)
 Трекер:    Зареєстрований   

Завантажити / скачати фільм українською



відео для новачків



 Зареєстрований:   2018-12-08 19:09
 Розмір:   32.45 GB 
 Оцінка фільму:   8.3/10 (Голосів: 16)
   
Інші релізи
   Петля часу / Looper (2012) AVC 2xUkr/Eng | Sub Eng staf777  18 / 0   3.08 GB   2018-12-08 16:54 
   Петля часу / Looper (2012) 2xUkr/Eng Arsenfpu  5 / 0   2.24 GB   2017-10-09 21:56 
   Петля часу / Looper (2012) 1080p Ukr/Eng | Sub Eng ratbol  5 / 0   12.65 GB   2013-01-23 12:44 
Дядько Моzapт 
Новенький


З нами з: 26.10.15
Востаннє: 14.12.18
Повідомлень: 5

2017-02-08 18:27  
Дивився цей фільм недавно.
Якщо чесно, то опис виглядає краще, аніж сам фільм. Ідея дуже цікава, а от втілення її у фільмі слабеньке, не дивлячись на крутих акторів.
Плюс до всього, занадто багато гриму на Ґордона-Левіта наклали і... ну, так якось дуже штучно виглядає(

Але комусь, я думаю, сподобається і хтось не причепиться до таких деталей)))

staf777 
Попереджень: 1
Попереджень: 1 


З нами з: 16.11.16
Востаннє: 16.12.18
Повідомлень: 1930

2018-12-08 19:14  
Додав доріжку 5.1 та доріжку від
також замінив оригінальні саби PGS на програмні (м'які) *.srt

igor911 
Відео Гуртом
Відео Гуртом


З нами з: 18.01.08
Востаннє: 17.12.18
Повідомлень: 11622

2018-12-08 19:44  
staf777 написано:
замінив оригінальні саби PGS на програмні (м'які) *.srt

заміняти в ремуксі оригінальні пререндерні саби з блурея на невідомо ким і як роблені програмні не варто, хіба додавати їх як альтернативні, якщо є таке бажання.

staf777 
Попереджень: 1
Попереджень: 1 


З нами з: 16.11.16
Востаннє: 16.12.18
Повідомлень: 1930

2018-12-08 19:51  
igor911
Саби брав у potroksа
посилання видалено, п.2.10
в нього як на мене найкращі ріпи тобто повинно бути все ок ...
Чи маєте на увазі що надо переробить бо зараз хочу зайнятись цім https://toloka.to/t97108 але не як не можу докачати ріп юа фільм

igor911 
Відео Гуртом
Відео Гуртом


З нами з: 18.01.08
Востаннє: 17.12.18
Повідомлень: 11622

2018-12-08 19:56  
staf777 написано:
Саби брав

яка різниця, де ти їх брав? сумніваюсь, що ти їх перевірятимеш, як і ті релізери, чиї ріпи ти береш.
igor911 написано:
не варто заміняти в ремуксі оригінальні пререндерні саби з блурея на невідомо ким і як роблені

staf777 
Попереджень: 1
Попереджень: 1 


З нами з: 16.11.16
Востаннє: 16.12.18
Повідомлень: 1930

2018-12-08 20:01  
igor911
Зрозумів в наступних ремуксах буду залишати PGS ...

Ваш часовий пояс: GMT + 2 Години

Нова тема   Відповісти