Петля часу / Looper (2012) Remux 1080p Ukr/Eng | Sub Eng

Нові коментарі

Нова тема   Відповісти
Останній раз роздавалося jaral (2017-12-10)
Автор Повідомлення
staf777 
Відео Гуртом - підтримка та поширення
Відео Гуртом - підтримка та поширення


З нами з: 16.11.16
Востаннє: 06.11.17
Повідомлень: 522

2017-02-08 16:39  
Петля часу / Looper (2012) Remux 1080p Ukr/Eng | Sub Eng

Петля часу / Looper (2012) Remux 1080p Ukr/Eng | Sub Eng
Оригінальний постер

Петля часу / Looper (2012) Remux 1080p Ukr/Eng | Sub Eng
Жанр: екшн, кримінальний, фантастика, трилер
Країна: США, Китай



Кінокомпанія: Endgame Entertainment, DMG Entertainment, FilmNation Entertainment, Ram Bergman Productions
Режисер: Раян Джонсон
Актори: Джозеф Ґордон-Левіт, Брюс Вілліс, Емілі Блант, Пол Дано, Ной Сеґан, Пайпер Перабо, Джефф Деніелс та інші

Сюжет:
В недалекому майбутньому, де стали можливі подорожі в часі, деяка корпорація прибирає небажаних людей, відправляючи їх у минуле в пластикових пакетах. Завдання приймаючої сторони — всадити жертві кулю в голову, стерши тим самим нещасного з історії. Все йде гладко до тих пір, поки головний герой не розпаковує черговий пакет, знаходячи в ньому... самого себе з майбутнього.


Тривалість: 01:58:53
Якість: Remux 1080p
Відео:
кодек:
розмір кадру: 1920x1080
бітрейт: 31.8 Mб/с

Аудіо # 1:
мова: українська
переклад: багатоголосий закадровий
кодек: -HD MA5.1
бітрейт: 2105 кб/с

Аудіо # 2:
мова: англійська
переклад: оригінал
кодек: -HD MA 5.1
бітрейт: 3650 кб/с

Аудіо # 3:
мова: англійська
переклад: описова
кодек: 5.1
бітрейт: 640 кб/с

Аудіо # 4:
мова: англійська
переклад: оригінал
кодек: 2.0
бітрейт: 192 кб/с

Субтитри:
мова: англійська
тип: пререндерні
формат: PGS
Info
General
Unique ID : 224289409370326705049930126698288573538 (0xA8BC91A81E27A10BBF485DC78E5CEC62)
Complete name : P:\HDClub\LOOPER_2012_BD_REMUX_HDCLUB\BDMV\STREAM\Looper (2012) [Ukr,Eng sub.Ukr,Eng] Remux 1080p [Hurtom].
Format :
Format version : Version 4 / Version 2
File size : 32.0 GiB
Duration : 1 h 58 min
Overall bit rate mode : Variable
Overall bit rate : 38.5 Mb/s
Movie name : Looper (2012) [Ukr,Eng sub.Ukr,Eng] Remux 1080p [Hurtom]
Encoded date : UTC 2017-02-09 09:24:49
Writing application : mkvmerge v9.8.0 ('Kuglblids') 64bit
Writing library : libebml v1.3.4 + libmatroska v1.4.5

Video
ID : 1
Format : AVC
Format/Info : Advanced Video Codec
Format profile : [email protected]
Format settings, CABAC : Yes
Format settings, ReFrames : 4 frames
Codec ID : V_MPEG4/ISO/AVC
Duration : 1 h 58 min
Bit rate mode : Variable
Bit rate : 31.8 Mb/s
Maximum bit rate : 37.0 Mb/s
Width : 1 920 pixels
Height : 1 080 pixels
Display aspect ratio : 16:9
Frame rate mode : Constant
Frame rate : 23.976 (24000/1001) FPS
Color space : YUV
Chroma subsampling : 4:2:0
Bit depth : 8 bits
Scan type : Progressive
Bits/(Pixel*Frame) : 0.641
Stream size : 26.4 GiB (83%)
Default : Yes
Forced : No

Audio #1
ID : 2
Format :
Format/Info : Digital Theater Systems
Format profile : MA / Core
Mode : 16
Format settings, Endianness : Big
Codec ID : A_DTS
Duration : 1 h 58 min
Bit rate mode : Variable / Constant
Bit rate : 2 105 kb/s / 1 509 kb/s
Channel(s) : 6 channels
Channel positions : Front: L C R, Side: L R, LFE
Sampling rate : 48.0 kHz
Frame rate : 93.750 FPS (512 spf)
Bit depth : 16 bits
Compression mode : Lossless / Lossy
Stream size : 1.75 GiB (5%)
Language : Ukrainian
Default : Yes
Forced : Yes

Audio #2
ID : 3
Format :
Format/Info : Digital Theater Systems
Format profile : MA / Core
Mode : 16
Format settings, Endianness : Big
Codec ID : A_DTS
Duration : 1 h 58 min
Bit rate mode : Variable / Constant
Bit rate : 3 650 kb/s / 1 509 kb/s
Channel(s) : 6 channels
Channel positions : Front: L C R, Side: L R, LFE
Sampling rate : 48.0 kHz
Frame rate : 93.750 FPS (512 spf)
Bit depth : 24 bits
Compression mode : Lossless / Lossy
Stream size : 3.03 GiB (9%)
Language : English
Default : No
Forced : No

Audio #3
ID : 4
Format : AC-3
Format/Info : Audio Coding 3
Mode extension : CM (complete main)
Format settings, Endianness : Big
Codec ID : A_AC3
Duration : 1 h 58 min
Bit rate mode : Constant
Bit rate : 640 kb/s
Channel(s) : 6 channels
Channel positions : Front: L C R, Side: L R, LFE
Sampling rate : 48.0 kHz
Frame rate : 31.250 FPS (1536 spf)
Bit depth : 16 bits
Compression mode : Lossy
Stream size : 544 MiB (2%)
Language : English
Default : No
Forced : No

Audio #4
ID : 5
Format : AC-3
Format/Info : Audio Coding 3
Format profile : Dolby Digital
Mode extension : CM (complete main)
Format settings, Endianness : Big
Codec ID : A_AC3
Duration : 1 h 58 min
Bit rate mode : Constant
Bit rate : 192 kb/s
Channel(s) : 2 channels
Channel positions : Front: L R
Sampling rate : 48.0 kHz
Frame rate : 31.250 FPS (1536 spf)
Bit depth : 16 bits
Compression mode : Lossy
Stream size : 163 MiB (0%)
Language : English
Default : No
Forced : No

Text #1
ID : 6
Format : PGS
Muxing mode : zlib
Codec ID : S_HDMV/PGS
Codec ID/Info : Picture based subtitle format used on BDs/HD-DVDs
Duration : 1 h 53 min
Bit rate : 6 983 b/s
Count of elements : 2408
Stream size : 5.64 MiB (0%)
Language : English
Default : No
Forced : No

Text #2
ID : 7
Format : PGS
Muxing mode : zlib
Codec ID : S_HDMV/PGS
Codec ID/Info : Picture based subtitle format used on BDs/HD-DVDs
Duration : 1 h 47 min
Bit rate : 9 682 b/s
Count of elements : 1780
Stream size : 7.42 MiB (0%)
Language : English
Default : No
Forced : No

Text #3
ID : 8
Format : PGS
Muxing mode : zlib
Codec ID : S_HDMV/PGS
Codec ID/Info : Picture based subtitle format used on BDs/HD-DVDs
Duration : 1 h 58 min
Bit rate : 27.9 kb/s
Count of elements : 4519
Stream size : 23.7 MiB (0%)
Language : English
Default : No
Forced : No
Скріншоти




Джерело: &
Особиста оцінка: 0 - не дивився


Золотий реліз (завантажене не впливає на рейтинг)
 Трекер:    Зареєстрований   

Завантажити / скачати фільм українською



відео для новачків



 Зареєстрований:   2017-02-09 13:23
 Розмір:   31.96 GB 
 Оцінка фільму:   9/10 (Голосів: 8)
   
Інші релізи
   Петля часу / Looper (2012) 2xUkr/Eng Arsenfpu  20 / 1   2.24 GB   2017-10-09 21:56 
   Петля часу / Looper (2012) AVC Ukr/Eng | Sub Eng BASTERD-94  9 / 0   2.9 GB   2013-06-25 20:30 
   Петля часу / Looper (2012) 1080p Ukr/Eng | Sub Eng ratbol  13 / 0   12.65 GB   2013-01-23 12:44 
Дядько Моzapт 
Новенький


З нами з: 26.10.15
Востаннє: 15.12.17
Повідомлень: 5

2017-02-08 18:27  
Дивився цей фільм недавно.
Якщо чесно, то опис виглядає краще, аніж сам фільм. Ідея дуже цікава, а от втілення її у фільмі слабеньке, не дивлячись на крутих акторів.
Плюс до всього, занадто багато гриму на Ґордона-Левіта наклали і... ну, так якось дуже штучно виглядає(

Але комусь, я думаю, сподобається і хтось не причепиться до таких деталей)))

Ваш часовий пояс: GMT + 2 Години

Нова тема   Відповісти