Залізна людина 2 / Iron Man 2 (2010) Remux 1080p Ukr/Eng | Sub Ukr/Eng

Нові коментарі

Нова тема   Відповісти
Автор Повідомлення
Argentum 
Свій


З нами з: 25.09.11
Востаннє: 17.10.17
Повідомлень: 83

2017-02-08 15:42  
Залізна людина 2 / Iron Man 2 (2010) Remux 1080p Ukr/Eng | Sub Ukr/Eng

Залізна людина 2 / Iron Man 2 (2010) Remux 1080p Ukr/Eng | Sub Ukr/Eng


Жанр: бойовик, фантастика, екшн, пригодницький
Країна: США



Кінокомпанія: Paramount Pictures
Режисер: Джон Фавро
Актори: Роберт Дауні-мол, Скарлетт Йохансон, Сем Роквелл, Міккі Рурк, Гвінет Пелтроу, Пол Беттані, Семюел Л. Джексон, Дон Чідл, Пол Беттані, Кейт Мара, Джон Фавро, Тім Джині, Стен Лі

Сюжет:
Світ знає, що мільярдер-винахідник Тоні Старк супергерой Залізна людина. Під тиском з боку уряду, преси та громадськості щоб той передав технологію військовим, Тоні не хоче розголошувати секрети броні Залізної Людини, тому що він боїться, що інформація піде в чужі руки. З Пеппер Поттс і Джеймсом Роудсом, на його боці, Тоні знаходить нових союзників і протистоїть новим, ще більш потужним силам.


Тривалість: 02:04:39
Якість: Remux 1080p
Відео:
кодек:
розмір кадру: 1920 х 1080
бітрейт: ~29 050 кб/с

Аудіо # 1:
мова: українська
переклад: професійний дубльований
кодек: 5.1
бітрейт: 448 кб/с

Аудіо # 2:
мова: англійська
переклад: оригінал
кодек: -HD MA 5.1
бітрейт: 3929 кб/с

Аудіо # 3:
мова: англійська
переклад: оригінал
кодек: 2.0
бітрейт: 224 кб/с

Джерело озвучення:


Субтитри # 1-2:
мова: українська (форсовані, повні)
тип: пререндерні
формат: *.pgs

Субтитри # 3-4:
мова: англійська (форсовані, повні)
тип: пререндерні
формат: *.pgs
Info
General
Unique ID : 210593529387911450879720138710675280911 (0x9E6ED6A3A04CA115EDBE570F836AD40F)
Complete name : /home/dim/Public/IM/IM2/ Iron Man 2 (2010) [Ukr, Eng] 1080p BD-Remux [Hurtom].
Format :
Format version : Version 4 / Version 2
File size : 29.4 GiB
Duration : 2h 4mn
Overall bit rate mode : Variable
Overall bit rate : 33.7 Mbps
Encoded date : UTC 2017-02-08 06:45:43
Writing application : mkvmerge v9.8.0 ('Kuglblids') 64bit
Writing library : libebml v1.3.4 + libmatroska v1.4.5

Video
ID : 1
Format : AVC
Format/Info : Advanced Video Codec
Format profile : [email protected]
Format settings, CABAC : Yes
Format settings, ReFrames : 4 frames
Format settings, GOP : M=3, N=12
Codec ID : V_MPEG4/ISO/AVC
Duration : 2h 4mn
Bit rate mode : Variable
Bit rate : 29.0 Mbps
Maximum bit rate : 31.0 Mbps
Width : 1 920 pixels
Height : 1 080 pixels
Display aspect ratio : 16:9
Frame rate mode : Constant
Frame rate : 23.976 (24000/1001) fps
Color space : YUV
Chroma subsampling : 4:2:0
Bit depth : 8 bits
Scan type : Progressive
Bits/(Pixel*Frame) : 0.583
Stream size : 25.2 GiB (86%)
Default : Yes
Forced : No
Color range : Limited
Color primaries : BT.709
Transfer characteristics : BT.709
Matrix coefficients : BT.709

Audio #1
ID : 2
Format : AC-3
Format/Info : Audio Coding 3
Mode extension : CM (complete main)
Format settings, Endianness : Big
Codec ID : A_AC3
Duration : 2h 4mn
Bit rate mode : Constant
Bit rate : 448 Kbps
Channel(s) : 6 channels
Channel positions : Front: L C R, Side: L R, LFE
Sampling rate : 48.0 KHz
Frame rate : 31.250 fps (1536 spf)
Compression mode : Lossy
Stream size : 399 MiB (1%)
Language : Ukrainian
Default : Yes
Forced : No

Audio #2
ID : 3
Format :
Format/Info : Digital Theater Systems
Format profile : MA / Core
Mode : 16
Format settings, Endianness : Big
Codec ID : A_DTS
Duration : 2h 4mn
Bit rate mode : Variable / Constant
Bit rate : 3 929 Kbps / 1 509 Kbps
Channel(s) : 6 channels
Channel positions : Front: L C R, Side: L R, LFE
Sampling rate : 48.0 KHz
Frame rate : 93.750 fps (512 spf)
Bit depth : 24 bits
Compression mode : Lossless / Lossy
Stream size : 3.42 GiB (12%)
Language : English
Default : No
Forced : No

Audio #3
ID : 4
Format : AC-3
Format/Info : Audio Coding 3
Mode extension : CM (complete main)
Format settings, Endianness : Big
Codec ID : A_AC3
Duration : 2h 4mn
Bit rate mode : Constant
Bit rate : 224 Kbps
Channel(s) : 2 channels
Channel positions : Front: L R
Sampling rate : 48.0 KHz
Frame rate : 31.250 fps (1536 spf)
Compression mode : Lossy
Stream size : 200 MiB (1%)
Language : English
Default : No
Forced : No

Text #1
ID : 5
Format : PGS
Codec ID : S_HDMV/PGS
Codec ID/Info : Picture based subtitle format used on BDs/HD-DVDs
Duration : 2h 3mn
Bit rate : 356 bps
Count of elements : 44
Stream size : 322 KiB (0%)
Title : forced
Language : Ukrainian
Default : No
Forced : No

Text #2
ID : 6
Format : PGS
Codec ID : S_HDMV/PGS
Codec ID/Info : Picture based subtitle format used on BDs/HD-DVDs
Duration : 2h 4mn
Bit rate : 38.6 Kbps
Count of elements : 3134
Stream size : 34.4 MiB (0%)
Language : Ukrainian
Default : No
Forced : No

Text #3
ID : 7
Format : PGS
Codec ID : S_HDMV/PGS
Codec ID/Info : Picture based subtitle format used on BDs/HD-DVDs
Duration : 2h 4mn
Bit rate : 41.0 Kbps
Count of elements : 3064
Stream size : 36.4 MiB (0%)
Title : forced
Language : English
Default : No
Forced : No

Text #4
ID : 8
Format : PGS
Codec ID : S_HDMV/PGS
Codec ID/Info : Picture based subtitle format used on BDs/HD-DVDs
Duration : 2h 4mn
Bit rate : 68.1 Kbps
Count of elements : 4301
Stream size : 60.6 MiB (0%)
Language : English
Default : No
Forced : No
Скріншоти




Джерело: &
Особиста оцінка: 10 - без зайвих вагань рекомендую всім!


Золотий реліз (завантажене не впливає на рейтинг)
 Трекер:    Зареєстрований   

Завантажити / скачати фільм українською



відео для новачків



 Зареєстрований:   2017-08-16 22:50
 Розмір:   29.37 GB 
 Оцінка фільму:   8.4/10 (Голосів: 19)
   
Інші релізи
Mongoose 
Свій


З нами з: 27.03.16
Востаннє: 18.10.17
Повідомлень: 78

2017-02-12 01:02  
Український дубляж Marvel - безподобний)
Argentum 
Свій


З нами з: 25.09.11
Востаннє: 17.10.17
Повідомлень: 83

2017-08-16 23:05  
Додав до торрент файла посилання на web-seed. Прохання перехешувати роздачу.

Legenda95 
Новенький


З нами з: 21.06.17
Востаннє: 18.10.17
Повідомлень: 11

2017-08-17 11:34  
Argentum
вибачте, можете мені, будь-ласка, пояснити що таке посилання на web-seed?

Argentum 
Свій


З нами з: 25.09.11
Востаннє: 17.10.17
Повідомлень: 83

2017-08-17 13:17  
Legenda95 написано:
вибачте, можете мені, будь-ласка, пояснити що таке посилання на web-seed?


Веб-сід
— HTTP або FTP-сервер, що використовується як джерело даних, нарівні зі звичайними сідами

Ваш часовий пояс: GMT + 2 Години

Нова тема   Відповісти