Залізна людина / Iron Man (2008) Remux 1080p Ukr/Eng | Sub Ukr/Eng

Нові коментарі

Нова тема   Відповісти
Автор Повідомлення
Argentum 
Свій


З нами з: 25.09.11
Востаннє: 19.08.17
Повідомлень: 65

2017-02-08 14:59  
Залізна людина / Iron Man (2008) Remux 1080p Ukr/Eng | Sub Ukr/Eng

Залізна людина / Iron Man (2008) Remux 1080p Ukr/Eng | Sub Ukr/Eng


Жанр: екшн, фантастика, пригодницький, бойовик
Країна: США



Кінокомпанія: Paramount Pictures
Режисер: Джон Фавро
Актори: Роберт Дауні мол., Терренс Ховард Дешон, Джефф Бріджес, Гвінет Пелтроу, Леслі Бібб, Шон Тоуб, Фаран Таїр, Сайед Бадрея, Білл Смітровіч, Кларк Грегг

Сюжет:
Мільярдер, плейбой, геніальний винахідник і голова корпорації «Старк Індастріз», що поставляє зброю в усі регіони світу, Тоні Старк відправляється в Афганістан особисто представити свою останню розробку - ракету «Єрихон». Потрапивши в полон до терористів групи «Десять кілець», він переглядає свої погляди на бізнес, вирішуючи спрямувати кошти на благодійність. Втікши з полону, він створює суперсучасний костюм з надміцних матеріалів, що дозволяє швидко наводити порядок у гарячих точках планети. Права рука Старка Обадайа Стерн не поділяє гуманістичних поривів боса, мріючи про створення солдатів-роботів нового покоління.


Тривалість: 2:06:01
Якість: Remux 1080p
Відео:
кодек:
розмір кадру: 1920 х 1080
бітрейт: 27 100 кб/с

Аудіо # 1:
мова: українська
переклад: професійний дубльований
кодек: 5.1
бітрейт: 448 кб/с

Аудіо # 2:
мова: англійська
переклад: оригінал
кодек: Dolby TrueHD 5.1
бітрейт: 3493 кб/с

Аудіо # 3:
мова: англійська
переклад: оригінал
кодек: 5.1
бітрейт: 640 кб/с

Джерело озвучення:


Субтитри:
мова: українська (форсовані)
тип: пререндерні
формат: *.pgs

Субтитри:
мова: англійська (форсовані)
тип: пререндерні
формат: *.pgs

Субтитри:
мова: українська (повні)
тип: пререндерні
формат: *.pgs

Субтитри:
мова: англійська (повні)
тип: пререндерні
формат: *.pgs
Info
General
Unique ID : 65148066275429775856040161420060738862 (0x31030FA891233F05042730367A25452E)
Complete name : /home/jack/Public/Iron Man (2008) [Ukr, Eng] 1080p BD-Remux.
Format :
Format version : Version 4 / Version 2
File size : 28.0 GiB
Duration : 2h 6mn
Overall bit rate mode : Variable
Overall bit rate : 31.8 Mbps
Encoded date : UTC 2017-02-08 07:07:15
Writing application : mkvmerge v9.8.0 ('Kuglblids') 64bit
Writing library : libebml v1.3.4 + libmatroska v1.4.5

Video
ID : 1
Format : AVC
Format/Info : Advanced Video Codec
Format profile : [email protected]
Format settings, CABAC : Yes
Format settings, ReFrames : 4 frames
Codec ID : V_MPEG4/ISO/AVC
Duration : 2h 6mn
Bit rate mode : Variable
Bit rate : 27.1 Mbps
Maximum bit rate : 39.5 Mbps
Width : 1 920 pixels
Height : 1 080 pixels
Display aspect ratio : 16:9
Frame rate mode : Constant
Frame rate : 23.976 (24000/1001) fps
Standard : NTSC
Color space : YUV
Chroma subsampling : 4:2:0
Bit depth : 8 bits
Scan type : Progressive
Bits/(Pixel*Frame) : 0.546
Stream size : 23.9 GiB (85%)
Default : Yes
Forced : No
Color range : Limited
Color primaries : BT.709
Transfer characteristics : BT.709
Matrix coefficients : BT.709

Audio #1
ID : 2
Format : AC-3
Format/Info : Audio Coding 3
Mode extension : CM (complete main)
Format settings, Endianness : Big
Codec ID : A_AC3
Duration : 2h 6mn
Bit rate mode : Constant
Bit rate : 448 Kbps
Channel(s) : 6 channels
Channel positions : Front: L C R, Side: L R, LFE
Sampling rate : 48.0 KHz
Frame rate : 31.250 fps (1536 spf)
Compression mode : Lossy
Stream size : 404 MiB (1%)
Language : Ukrainian
Default : Yes
Forced : No

Audio #2
ID : 3
Format : TrueHD
Codec ID : A_TRUEHD
Duration : 2h 6mn
Bit rate mode : Variable
Bit rate : 3 493 Kbps
Maximum bit rate : 5 247 Kbps
Channel(s) : 6 channels
Channel positions : Front: L C R, Side: L R, LFE
Sampling rate : 48.0 KHz
Frame rate : 1 200.000 fps (40 spf)
Compression mode : Lossless
Stream size : 3.07 GiB (11%)
Language : English
Default : No
Forced : No

Audio #3
ID : 4
Format : AC-3
Format/Info : Audio Coding 3
Mode extension : CM (complete main)
Format settings, Endianness : Big
Codec ID : A_AC3
Duration : 2h 6mn
Bit rate mode : Constant
Bit rate : 640 Kbps
Channel(s) : 6 channels
Channel positions : Front: L C R, Side: L R, LFE
Sampling rate : 48.0 KHz
Frame rate : 31.250 fps (1536 spf)
Compression mode : Lossy
Stream size : 577 MiB (2%)
Language : English
Default : No
Forced : No

Text #1
ID : 5
Format : PGS
Codec ID : S_HDMV/PGS
Codec ID/Info : Picture based subtitle format used on BDs/HD-DVDs
Duration : 1h 3mn
Bit rate : 785 bps
Count of elements : 74
Stream size : 365 KiB (0%)
Title : forced
Language : Ukrainian
Default : No
Forced : No

Text #2
ID : 6
Format : PGS
Codec ID : S_HDMV/PGS
Codec ID/Info : Picture based subtitle format used on BDs/HD-DVDs
Duration : 1h 3mn
Bit rate : 683 bps
Count of elements : 74
Stream size : 317 KiB (0%)
Title : forced
Language : English
Default : No
Forced : No

Text #3
ID : 7
Format : PGS
Codec ID : S_HDMV/PGS
Codec ID/Info : Picture based subtitle format used on BDs/HD-DVDs
Duration : 2h 4mn
Bit rate : 35.9 Kbps
Count of elements : 2690
Stream size : 32.0 MiB (0%)
Language : Ukrainian
Default : No
Forced : No

Text #4
ID : 8
Format : PGS
Codec ID : S_HDMV/PGS
Codec ID/Info : Picture based subtitle format used on BDs/HD-DVDs
Duration : 2h 4mn
Bit rate : 36.1 Kbps
Count of elements : 2678
Stream size : 32.1 MiB (0%)
Language : English
Default : No
Forced : No
Скріншоти




Джерело: &
Особиста оцінка: 10 - без зайвих вагань рекомендую всім!


Золотий реліз (завантажене не впливає на рейтинг)
 Трекер:    Зареєстрований   

Завантажити / скачати фільм українською



відео для новачків



 Зареєстрований:   2017-08-17 10:35
 Розмір:   28.04 GB 
 Оцінка фільму:   9.8/10 (Голосів: 8)
   
Інші релізи
   Залізна Людина/ Iron Man (2008) 720p Drool  6 / 0   4.29 GB   2012-09-10 12:49 
   Залізна Людина/ Iron Man (2008) 1080p Ukr/Eng | Sub Ukr/Eng Слоник24  3 / 0   13.6 GB   2011-01-11 19:40 
Argentum 
Свій


З нами з: 25.09.11
Востаннє: 19.08.17
Повідомлень: 65

2017-04-05 23:57  
Зняв приватність з торрента
igor911 
Відео Гуртом
Відео Гуртом


З нами з: 18.01.08
Востаннє: 19.08.17
Повідомлень: 7291

2017-04-06 08:24  
Argentum, сподіваюсь, ти розумієш, що перезалив торрента позбавляє сідів та прискорює смерть релізу?
Argentum 
Свій


З нами з: 25.09.11
Востаннє: 19.08.17
Повідомлень: 65

2017-08-17 10:50  
Додав до torrent файла посилання на web-seed. Прохання перехешувати роздачу.

Ваш часовий пояс: GMT + 2 Години

Нова тема   Відповісти