Людина-мураха / Ant-Man (2015) Remux 1080p Ukr/Eng | Sub Ukr/Eng

Нові коментарі

Нова тема   Відповісти
Автор Повідомлення
staf777 
Відео Гуртом - підтримка та поширення
Відео Гуртом - підтримка та поширення


З нами з: 16.11.16
Востаннє: 16.08.17
Повідомлень: 522

2017-02-07 17:47  
Людина-мураха / Ant-Man (2015) Remux 1080p Ukr/Eng | Sub Ukr/Eng

Людина-мураха / Ant-Man (2015) Remux 1080p Ukr/Eng | Sub Ukr/Eng
Альтернативні постери та оригінальна обкладинка












Жанр: екшн, пригодницький, фантастика
Країна: США



Кінокомпанія: Marvel Studios
Режисер: Пейтон Рід
Актори: Пол Радд, Майкл Даґлес, Еванджелін Ліллі, Корі Столл, Майкл Пенья, Бобі Каннавале, Ті Ай, Давід Дастмалчіан, Еббі Райдер Фортсон, Джуді Ґрір

Сюжет:
Озброївшись дивовижною здатністю зменшуватися в розмірі, але володіти при цьому великою силою, шахрай Скотт Ленґ повинен стати героєм і допомогти своєму наставнику, доктору Генку Піму, зберегти в таємниці існування костюма Людини-мурахи від загроз нового покоління.


Тривалість: 01:57:20
Якість: Remux 1080p
Відео:
кодек:
розмір кадру: 1920x1080
бітрейт: 29,3 Mб/с

Аудіо # 1:
мова: українська
переклад: професійний дубльований
кодек: 5.1
бітрейт: 1509 кб/с

Аудіо # 2:
мова: англійська
переклад: оригінал
кодек: -HD MA 7.1
бітрейт: 4677 кб/с

Аудіо # 3:
мова: англійська
переклад: описова
кодек: 2.0
бітрейт: 320 кб/с

Аудіо # 4:
мова: англійська
переклад: коментарі
кодек: 2.0
бітрейт: 192 кб/с

Субтитри #1-2:
мова: українська (форсовані, повні)
тип: програмні (м'які)
формат: *.srt

Субтитри #3-4:
мова: англійська
тип: пререндерні
формат: PGS
Info
General
Unique ID : 204148926902911875411014635874431165612 (0x9995A7346CA9EA82B8DD551299DE64AC)
Complete name : P:\HD українською » Фільми в HD\Фантастика\Ant-Man (2015) [Ukr,Eng sub.Ukr,Eng] Remux 1080p [Hurtom].
Format :
Format version : Version 4 / Version 2
File size : 29.5 GiB
Duration : 1 h 57 min
Overall bit rate mode : Variable
Overall bit rate : 35.9 Mb/s
Movie name : Ant-Man (2015) [Ukr,Eng sub.Ukr,Eng] Remux 1080p [Hurtom]
Encoded date : UTC 2017-02-09 16:06:46
Writing application : mkvmerge v9.8.0 ('Kuglblids') 64bit
Writing library : libebml v1.3.4 + libmatroska v1.4.5

Video
ID : 1
Format : AVC
Format/Info : Advanced Video Codec
Format profile : [email protected]
Format settings, CABAC : Yes
Format settings, ReFrames : 4 frames
Codec ID : V_MPEG4/ISO/AVC
Duration : 1 h 57 min
Bit rate mode : Variable
Bit rate : 29.3 Mb/s
Maximum bit rate : 33.5 Mb/s
Width : 1 920 pixels
Height : 1 080 pixels
Display aspect ratio : 16:9
Frame rate mode : Constant
Frame rate : 23.976 (24000/1001) FPS
Color space : YUV
Chroma subsampling : 4:2:0
Bit depth : 8 bits
Scan type : Progressive
Bits/(Pixel*Frame) : 0.589
Stream size : 24.0 GiB (81%)
Default : Yes
Forced : No

Audio #1
ID : 2
Format :
Format/Info : Digital Theater Systems
Mode : 16
Format settings, Endianness : Big
Codec ID : A_DTS
Duration : 1 h 57 min
Bit rate mode : Constant
Bit rate : 1 509 kb/s
Channel(s) : 6 channels
Channel positions : Front: L C R, Side: L R, LFE
Sampling rate : 48.0 kHz
Frame rate : 93.750 FPS (512 spf)
Bit depth : 24 bits
Compression mode : Lossy
Stream size : 1.24 GiB (4%)
Language : Ukrainian
Default : Yes
Forced : Yes

Audio #2
ID : 3
Format :
Format/Info : Digital Theater Systems
Format profile : MA / Core
Mode : 16
Format settings, Endianness : Big
Codec ID : A_DTS
Duration : 1 h 57 min
Bit rate mode : Variable / Constant
Bit rate : 4 677 kb/s / 1 509 kb/s
Channel(s) : 8 channels / 6 channels
Channel positions : Front: L C R, Side: L R, Back: L R, LFE / Front: L C R, Side: L R, LFE
Sampling rate : 48.0 kHz
Frame rate : 93.750 FPS (512 spf)
Bit depth : 24 bits
Compression mode : Lossless / Lossy
Stream size : 3.83 GiB (13%)
Language : English
Default : No
Forced : No

Audio #3
ID : 4
Format : AC-3
Format/Info : Audio Coding 3
Format profile : Dolby Digital
Mode extension : CM (complete main)
Format settings, Endianness : Big
Codec ID : A_AC3
Duration : 1 h 57 min
Bit rate mode : Constant
Bit rate : 320 kb/s
Channel(s) : 2 channels
Channel positions : Front: L R
Sampling rate : 48.0 kHz
Frame rate : 31.250 FPS (1536 spf)
Bit depth : 16 bits
Compression mode : Lossy
Stream size : 268 MiB (1%)
Language : English
Default : No
Forced : No

Audio #4
ID : 5
Format : AC-3
Format/Info : Audio Coding 3
Mode extension : CM (complete main)
Format settings, Endianness : Big
Codec ID : A_AC3
Duration : 1 h 57 min
Bit rate mode : Constant
Bit rate : 192 kb/s
Channel(s) : 2 channels
Channel positions : Front: L R
Sampling rate : 48.0 kHz
Frame rate : 31.250 FPS (1536 spf)
Bit depth : 16 bits
Compression mode : Lossy
Stream size : 161 MiB (1%)
Language : English
Default : No
Forced : No

Text #1
ID : 6
Format : UTF-8
Codec ID : S_TEXT/UTF8
Codec ID/Info : UTF-8 Plain Text
Duration : 1 h 54 min
Bit rate : 0 b/s
Count of elements : 12
Stream size : 396 Bytes (0%)
Language : Ukrainian
Default : Yes
Forced : Yes

Text #2
ID : 7
Format : UTF-8
Codec ID : S_TEXT/UTF8
Codec ID/Info : UTF-8 Plain Text
Duration : 1 h 56 min
Bit rate : 83 b/s
Count of elements : 1521
Stream size : 71.4 KiB (0%)
Language : Ukrainian
Default : No
Forced : No

Text #3
ID : 8
Format : PGS
Muxing mode : zlib
Codec ID : S_HDMV/PGS
Codec ID/Info : Picture based subtitle format used on BDs/HD-DVDs
Duration : 1 h 56 min
Bit rate : 12.6 kb/s
Count of elements : 3432
Stream size : 10.5 MiB (0%)
Language : English
Default : No
Forced : No

Text #4
ID : 9
Format : PGS
Muxing mode : zlib
Codec ID : S_HDMV/PGS
Codec ID/Info : Picture based subtitle format used on BDs/HD-DVDs
Duration : 1 h 57 min
Bit rate : 25.1 kb/s
Count of elements : 4778
Stream size : 21.0 MiB (0%)
Language : English
Default : No
Forced : No
Скріншоти




Джерело: &
Особиста оцінка: 9 - давно не бачив настільки якісне кіно


Золотий реліз (завантажене не впливає на рейтинг)
 Трекер:    Зареєстрований   

Завантажити / скачати фільм українською



відео для новачків



 Зареєстрований:   2017-02-09 21:26
 Розмір:   29.47 GB 
 Оцінка фільму:   9.9/10 (Голосів: 10)
   
Інші релізи
   Людина-мураха / Ant-Man (2015) [ 5,1] Український дубляж GEORGKys  1 / 0   1.24 GB   2016-02-21 14:57 
   Людина-мураха / Ant-Man (2015) 1080p 3D [Half OverUnder] Ukr/Eng | Sub Ukr/Eng GEORGKys  3 / 0   16.73 GB   2016-01-22 12:42 
   Людина-мураха / Ant-Man (2015) 720p-mini (60 fps) Drool  5 / 0   4.21 GB   2015-12-04 09:22 
   Людина-мураха / Ant-Man (2015) 720p-mini Drool  7 / 0   2.81 GB   2015-12-03 17:40 
   Людина-мураха / Ant-Man (2015) 720p Ukr/Eng | Sub Ukr/Eng 11FrYkT  17 / 0   5.93 GB   2015-12-02 18:55 
   Людина-мураха / Ant-Man (2015) 1080p Ukr/Eng | Sub Ukr/Eng 11FrYkT  11 / 0   14.12 GB   2015-12-02 18:34 
   Людина-мураха / Ant-Man (2015) AVC Ukr/Eng | Sub Ukr/Eng Gelios  13 / 0   2.16 GB   2015-11-29 20:39 
   Людина-мураха / Ant-Man (2015) patriot2305  29 / 0   1.45 GB   2015-11-29 20:37 
   Людина-мураха / Ant-Man (2015) Ukr/Eng | Sub Ukr/Eng Gelios  10 / 0   2.18 GB   2015-11-29 20:37 
igor911 
Відео Гуртом
Відео Гуртом


З нами з: 18.01.08
Востаннє: 19.08.17
Повідомлень: 7291

2017-02-09 18:18  
staf777 написано:
Count of elements : 12
Stream size : 396 Bytes (0%)
Language : Ukrainian

тут лише укр.форсовані саби. Де поділись повні?

Додано через 1 хвилину 23 секунди:

і нагадую ще раз - не тули зображення з радіКАЛА

staf777 
Відео Гуртом - підтримка та поширення
Відео Гуртом - підтримка та поширення


З нами з: 16.11.16
Востаннє: 16.08.17
Повідомлень: 522

2017-02-09 18:50  
igor911
Їх не було укр.форсовані саби загрузив у нас там де доріжки та і саму доріжку взяв з іншой раздачі
і нагадую ще раз - не тули зображення з радіКАЛА за які зображення Ви говорите скріни сам роблю ... чи Ви маєте на увазі постери

igor911 
Відео Гуртом
Відео Гуртом


З нами з: 18.01.08
Востаннє: 19.08.17
Повідомлень: 7291

2017-02-09 18:57  
staf777 написано:
Їх не було

Були в п'яти інших релізах на Толоці та на сервері доріжок.
http://dorizhky.hurtom.com/SUBTITLES%20UKR/Ant-Man%20%282015%29.01h57m06s.23%2C976fps.%5BHurtom%5D%20UKR.srt

Додай, будь ласка.

Додано через 1 хвилину 24 секунди:

робота релізера не обмежується лише копіпастою з клаба з вирізанням зайвого, треба промоніторити наявні тут релізи на предмет укр.доріжок/сабів.

staf777 
Відео Гуртом - підтримка та поширення
Відео Гуртом - підтримка та поширення


З нами з: 16.11.16
Востаннє: 16.08.17
Повідомлень: 522

2017-02-09 22:50  
igor911
Додав

Ваш часовий пояс: GMT + 2 Години

Нова тема   Відповісти