Берсерк (Сезон 2) (серії 01-12 з 12) / Berserk (2016) 1080p Ukr/Jap | sub Ukr

Нові коментарі

Нова тема   Відповісти
Автор Повідомлення
ihabi 
Поважний учасник


З нами з: 01.03.13
Востаннє: 07.08.17
Повідомлень: 247

2017-02-06 23:11  
Берсерк (Сезон 2) (серії 01-12 з 12) / Berserk (2016) 1080p Ukr/Jap | sub Ukr

Берсерк (Сезон 2) (серії 01-12 з 12) / Berserk (2016) 1080p Ukr/Jap | sub Ukr


Жанр: пригоди, фентезі
Країна: Японія
Обмеження: 18+



6.22 (765 голосів)

Кінокомпанія: Liden Films, GEMBA, Millepensee
Режисер: Шін Ітаґакі
Ролі озвучують: Хіроякі Іванаґаб Каору Мідзухараб Йоуко Хікаса, Кадзуюкі Окітсу, Хіро Шімоно, Хірокі Ясумото, Тоа Юкінарі

Сюжет:
Довгоочікуване продовження культового серіалу 1998 року, який закінчився під час "Затемнення" та падіння "Банди Яструба". Пропустивши 1 арку сюжету з манґи (а саме з 103 розділу до 110-го), глядачу демонструють, що Ґатц вже вибрався з того жахіття, що в нього вже є протез з вмонтованою вогнепальною зброєю, що за ним йде полювання, як за таврованим... Сюжет розвивається біля святої інквізиції та єретиків, підіймаються питання культів та людської віри.


Тривалість: 1 серія: 24:27 (цілком серій: 12)
Перелік серій
1. Таврований Мечник
2. Орден Залізного Ланцюга
3. Ніч Див
4. Богоявлення
5. Вежа Засудження
6. Нічне гуляння: спалення на вогнищі
7. Темна відьма
8. Возз'єднання у лігві зла
9. Кровотік Смерті
10. Янголи Пекла
11. Тіні ідей
12. Ті, що чіпляються, ті, що борються
Якість:
Відео:
кодек:
розмір кадру: 1920 х 1080
бітрейт: 3 072 кб/с

Аудіо #1:
мова: українська
переклад: багатоголосий закадровий
кодек: FLAC 2.0
бітрейт: 738 кб/с

Аудіо #2:
мова: японська
переклад: оригінал
кодек: 2.0
бітрейт: 128 кб/с

Субтитри #1:
мова: українська
тип: пререндерні (написи)
формат: *.ass

Субтитри #2:
мова: українська (Ґедет)
тип: м'які
формат: *.ass

Переклад виконано:
Переклад:
Переклад та лірика опенінґу: Enelira
Озвучення виконано:
Текст читали: ihabi, Kallaider, Korzhik, Lomaev, Zebadiya, Draga, Enelira, SmooZzzie
Робота зі звуком: Enelira, ihabi
Постер: пан Олександр

Джерело: MelodicVoiceStudio
Info
Format :
Format version : Version 4 / Version 2
File size : 691 MiB
Duration : 24 min 27 s
Overall bit rate mode : Variable
Overall bit rate : 3 949 kb/s
Encoded date : UTC 2017-02-06 19:50:23
Writing application : mkvmerge v9.8.0 ('Kuglblids') 64bit
Writing library : libebml v1.3.4 + libmatroska v1.4.5
Cover : Yes
Attachments : cover.jpg / cover.jpg / arialbd_0.ttf / arialbi.ttf / OpenSans-Semibold.ttf

Video
ID : 2
Format : AVC
Format/Info : Advanced Video Codec
Format profile : [email protected]
Format settings, CABAC : Yes
Format settings, ReFrames : 4 frames
Codec ID : V_MPEG4/ISO/AVC
Duration : 24 min 27 s
Bit rate : 3 072 kb/s
Width : 1 920 pixels
Height : 1 080 pixels
Display aspect ratio : 16:9
Frame rate mode : Variable
Frame rate : 23.976 (23976/1000) FPS
Color space : YUV
Chroma subsampling : 4:2:0
Bit depth : 8 bits
Scan type : Progressive
Bits/(Pixel*Frame) : 0.062
Stream size : 537 MiB (78%)
Title : MVS
Writing library : core 120 r2120 0c7dab9
Encoding settings : cabac=1 / ref=4 / deblock=1:1:1 / analyse=0x3:0x113 / me=umh / subme=8 / psy=1 / psy_rd=0.40:0.00 / mixed_ref=1 / me_range=16 / chroma_me=1 / trellis=1 / 8x8dct=1 / cqm=0 / deadzone=21,11 / fast_pskip=1 / chroma_qp_offset=-2 / threads=8 / sliced_threads=0 / nr=0 / decimate=1 / interlaced=0 / bluray_compat=0 / constrained_intra=0 / bframes=3 / b_pyramid=2 / b_adapt=2 / b_bias=0 / direct=3 / weightb=1 / open_gop=0 / weightp=2 / keyint=250 / keyint_min=23 / scenecut=40 / intra_refresh=0 / rc_lookahead=50 / rc=2pass / mbtree=1 / bitrate=3072 / ratetol=1.0 / qcomp=0.60 / qpmin=0 / qpmax=69 / qpstep=4 / cplxblur=20.0 / qblur=0.5 / vbv_maxrate=6144 / vbv_bufsize=15360 / nal_hrd=none / ip_ratio=1.40 / aq=1:0.60
Language : Ukrainian
Default : Yes
Forced : No

Audio #1
ID : 1
Format : FLAC
Format/Info : Free Lossless Audio Codec
Codec ID : A_FLAC
Duration : 24 min 27 s
Bit rate mode : Variable
Bit rate : 738 kb/s
Channel(s) : 2 channels
Channel positions : Front: L R
Sampling rate : 48.0 kHz
Frame rate : 11.719 FPS (4096 spf)
Bit depth : 16 bits
Stream size : 129 MiB (19%)
Writing library : libFLAC 20080709 (UTC 2008-07-09)
Default : Yes
Forced : Yes

Audio #2
ID : 5
Format :
Format/Info : Advanced Audio Codec
Format profile : LC
Codec ID : A_AAC
Duration : 24 min 27 s
Bit rate : 128 kb/s
Channel(s) : 2 channels
Channel positions : Front: L R
Sampling rate : 44.1 kHz
Frame rate : 43.066 FPS (1024 spf)
Compression mode : Lossy
Stream size : 22.4 MiB (3%)
Title : Jpn
Language : Japanese
Default : No
Forced : No

Text #1
ID : 3
Format : ASS
Codec ID : S_TEXT/ASS
Codec ID/Info : Advanced Sub Station Alpha
Duration : 24 min 26 s
Bit rate : 64 b/s
Count of elements : 10
Compression mode : Lossless
Stream size : 11.6 KiB (0%)
Title : Forced
Language : Ukrainian
Default : Yes
Forced : Yes

Text #2
ID : 4
Format : ASS
Codec ID : S_TEXT/ASS
Codec ID/Info : Advanced Sub Station Alpha
Duration : 24 min 27 s
Bit rate : 159 b/s
Count of elements : 263
Compression mode : Lossless
Stream size : 28.5 KiB (0%)
Title : Gedet
Language : Ukrainian
Default : No
Forced : No
Скріншоти














Особиста оцінка: 10 - без зайвих вагань рекомендую всім!


Авторський реліз (завантажувати можна без реєстрації)
 Трекер:    Зареєстрований   

Завантажити / скачати аніме українською



відео для новачків



 Зареєстрований:   2017-02-06 23:11
 Розмір:   9.39 GB 
 Оцінка аніме:   8.6/10 (Голосів: 7)
   
KuatemOk 
Поважний учасник


З нами з: 15.11.08
Востаннє: 20.08.17
Повідомлень: 179

2017-02-07 01:45  
не вірю своїм очам, величезна подяка за реліз )
don pedro 
Попереджень: 1
Попереджень: 1 


З нами з: 29.06.11
Востаннє: 22.08.17
Повідомлень: 10061

2017-02-07 01:50  
ihabi написано:
Затміння

Затемнення?

ihabi 
Поважний учасник


З нами з: 01.03.13
Востаннє: 07.08.17
Повідомлень: 247

2017-02-07 07:30  
don pedro
Точно Happy

NeetScrool 
Відео Гуртом - фільмокрай
Відео Гуртом - фільмокрай


З нами з: 10.01.13
Востаннє: 21.08.17
Повідомлень: 2613

2017-03-17 02:16  
Під перезбиратимете?
Virake 
Localize Team
Localize Team


З нами з: 07.07.09
Востаннє: 15.08.17
Повідомлень: 4452

2017-03-27 12:11  
дуже розчарований цим "сезоном". одна з головних причин є на першому скріншоті - такого в попередніх аніме з цієї серії не було.
iwan wan 
VIP


З нами з: 01.10.09
Востаннє: 21.08.17
Повідомлень: 1884

2017-03-27 12:20  
Цікаво вийшло, але якось попсовіше в порівнянні з першим сезоном
Косячок справжній 
VIP


З нами з: 29.02.12
Востаннє: 19.08.17
Повідомлень: 1010

2017-03-28 20:01  
Сумно, сумно аж за край..., хіба аби дізнатися що станеться, а так не порівняти з першим сезоном чи 3-м фільмом.
BMK12 
Відео Гуртом - підтримка та поширення
Відео Гуртом - підтримка та поширення


З нами з: 13.04.09
Востаннє: 21.08.17
Повідомлень: 3110

2017-05-26 23:49  
Перша серія: Нда... Графіка якась просто жахлива, в порівнянні з оригінальний першим сезоном. Та й анімація дещо незграбна, як в дешевій грі. Шкода трохи, таки шкода.

Додано через 24 хвилини 4 секунди:

2-га серії: схоже, вони все ж вирішили спаплюжити образ Ґатца - битва на 7:40 виглядає слабо (в порівнянні з тим, як Ґатц бився в першому сезон).

Додано через 8 хвилин 46 секунд:

Ой-йой... скільки ж пафосу.

Додано через 8 хвилин 41 секунду:

Ще й намалювали покалічені тіла... Або прикривайте наготу, або ж показуйте як належить. Бо так як тут - то вийшли якісь бідні каліки.

Додано через 1 годину 35 хвилин 38 секунд:

6-та серія: жестяк, тотальний жестяк з деградацію, знищенням усього людяного, беззмістовною жорстокістю та й просто жорстокістю... це трохи занадто.

Virake 
Localize Team
Localize Team


З нами з: 07.07.09
Востаннє: 15.08.17
Повідомлень: 4452

2017-05-27 03:34  
BMK12, це не "перший" і "другий" сезони. між ними проміжок у двадцять років.

Додано через 3 хвилини 30 секунд:

не кажучи вже про те, що сюжетно цей "другий" сезон продовжує трилогію фільмів, а не серіал 97-го року.

Ваш часовий пояс: GMT + 2 Години

Нова тема   Відповісти