Таємне вікно / Secret Window (2004) Remux 1080p Ukr/Eng | Sub Eng

Нові коментарі

Нова тема   Відповісти
Автор Повідомлення
staf777 
Відео Гуртом - підтримка та поширення
Відео Гуртом - підтримка та поширення


З нами з: 16.11.16
Востаннє: 11.09.17
Повідомлень: 522

2017-02-06 21:54  
Таємне вікно / Secret Window (2004) Remux 1080p Ukr/Eng | Sub Eng

Таємне вікно / Secret Window (2004) Remux 1080p Ukr/Eng | Sub Eng

Оригінальна обкладинка


повнорозмірне зображення відкриється по кліку (з натиснутим CTRL чи кліком середньою кнопкою мишки - у новій вкладці)

Жанр: містика, трилер
Країна: США



Кінокомпанія: Columbia Pictures Corporation, Grand Slam Productions, Pariah Entertainment Group
Режисер: Девід Кепп (David Koepp)
Актори: Джонні Депп (Johnny Depp) Джон Туртурро (John Turturro), Марія Белло (Maria Bello), Тімоті Хаттон (Timothy Hutton), Чарльз С. Даттон (Charles S. Dutton) та інші

Сюжет:
Фільм є екранізацією романа найвідомішого автора трилерів - Стівена Кінга. Цього разу картина оповідає про талановитого і успішного письменника Морте Рейні, який переживає не найкращі часи у своєму житті. Після того, як він застав свою дружину в ліжку з іншим чоловіком і пережив втомливі формальності розлучення, Морт вирішує віддалитися від справ, переїхати за місто і в тиші сільського життя боротися з творчою кризою, що осягнула його.
І все було добре до тих пір, поки одного дня вночі в його будинок не увірвався незнайомець, що звинуватив Морта в плагіаті. Джон Шутер був дуже схожий на психопата, а його пістолет - на справжній, аби Морту прийшла в голову ідея з ним сперечатися. І коли письменник спробував переконати співбесідника в своїй правоті, показавши йому рукописи книги, він зіткнувся з невеликою проблемою - рукопис безслідно зник.


Тривалість: 01:35:55
Якість: Remux 1080p
Відео:
кодек: MPEG2
розмір кадру: 1920x1080
бітрейт: 23,8 Mб/с

Аудіо # 1:
мова: українська
переклад: багатоголосий закадровий
кодек: 5.1
бітрейт: 448 кб/с

Аудіо # 2:
мова: англійська
переклад: оригінал
кодек: -HD MA 5.1
бітрейт: 2198 кб/с

Субтитри #1-2:
мова: англійська
тип: пререндерні
формат: PGS
Info
General
Unique ID : 194946500155994882745080074153082532454 (0x92A9548952D8C095A74FD9B45970B266)
Complete name : P:\HDClub\Secret.Window.2004.1080p.BD-Remux.Rus.Ukr.Eng.HDCLUB\BDMV\STREAM\ Secret Window (2004) [Ukr,Eng sub.Ukr,Eng] Remux 1080p [Hurtom].
Format :
Format version : Version 4 / Version 2
File size : 17.7 GiB
Duration : 1 h 35 min
Overall bit rate mode : Variable
Overall bit rate : 26.4 Mb/s
Movie name : Secret Window (2004) [Ukr,Eng sub.Ukr,Eng] Remux 1080p [Hurtom]
Encoded date : UTC 2017-02-09 07:04:53
Writing application : mkvmerge v9.8.0 ('Kuglblids') 64bit
Writing library : libebml v1.3.4 + libmatroska v1.4.5

Video
ID : 1
Format : MPEG Video
Format version : Version 2
Format profile : [email protected]
Format settings, BVOP : Yes
Format settings, Matrix : Custom
Format settings, GOP : M=3, N=12
Codec ID : V_MPEG2
Codec ID/Info : MPEG 1 or 2 Video
Duration : 1 h 35 min
Bit rate mode : Variable
Bit rate : 23.8 Mb/s
Maximum bit rate : 32.0 Mb/s
Width : 1 920 pixels
Height : 1 080 pixels
Display aspect ratio : 16:9
Frame rate mode : Constant
Frame rate : 23.976 (24000/1001) FPS
Color space : YUV
Chroma subsampling : 4:2:0
Bit depth : 8 bits
Scan type : Progressive
Compression mode : Lossy
Bits/(Pixel*Frame) : 0.478
Time code of first frame : 00:00:00:00
Time code source : Group of pictures header
GOP, Open/Closed : Open
GOP, Open/Closed of first frame : Closed
Stream size : 15.9 GiB (90%)
Default : Yes
Forced : No

Audio #1
ID : 2
Format : AC-3
Format/Info : Audio Coding 3
Mode extension : CM (complete main)
Format settings, Endianness : Big
Codec ID : A_AC3
Duration : 1 h 35 min
Bit rate mode : Constant
Bit rate : 448 kb/s
Channel(s) : 6 channels
Channel positions : Front: L C R, Side: L R, LFE
Sampling rate : 48.0 kHz
Frame rate : 31.250 FPS (1536 spf)
Bit depth : 16 bits
Compression mode : Lossy
Stream size : 307 MiB (2%)
Language : Ukrainian
Default : Yes
Forced : Yes

Audio #2
ID : 3
Format :
Format/Info : Digital Theater Systems
Format profile : MA / Core
Mode : 16
Format settings, Endianness : Big
Codec ID : A_DTS
Duration : 1 h 35 min
Bit rate mode : Variable / Constant
Bit rate : 2 198 kb/s / 1 509 kb/s
Channel(s) : 6 channels
Channel positions : Front: L C R, Side: L R, LFE
Sampling rate : 48.0 kHz
Frame rate : 93.750 FPS (512 spf)
Bit depth : 16 bits
Compression mode : Lossless / Lossy
Stream size : 1.47 GiB (8%)
Language : English
Default : No
Forced : No

Text #1
ID : 4
Format : PGS
Muxing mode : zlib
Codec ID : S_HDMV/PGS
Codec ID/Info : Picture based subtitle format used on BDs/HD-DVDs
Duration : 1 h 31 min
Bit rate : 15.4 kb/s
Count of elements : 1908
Stream size : 10.1 MiB (0%)
Language : English
Default : No
Forced : No

Text #2
ID : 5
Format : PGS
Muxing mode : zlib
Codec ID : S_HDMV/PGS
Codec ID/Info : Picture based subtitle format used on BDs/HD-DVDs
Duration : 1 h 31 min
Bit rate : 12.2 kb/s
Count of elements : 2082
Stream size : 8.05 MiB (0%)
Language : English
Default : No
Forced : No
Скріншоти



Джерело: &
Подяка за український постер п.yuraflash
Особиста оцінка: 0 - не дивився


Золотий реліз (завантажене не впливає на рейтинг)
 Трекер:    Зареєстрований   

Завантажити / скачати фільм українською



відео для новачків



 Зареєстрований:   2017-02-09 12:05
 Розмір:   17.71 GB 
 Оцінка фільму:   8.2/10 (Голосів: 5)
   
Інші релізи
   Таємне вікно / Secret Window (2004) 1080p Ukr/Eng | Sub Eng ratbol  4 / 0   8.36 GB   2012-03-16 23:05 
   Таємне вікно / Secret Window (2004) 720p Ukr/Eng | Sub Eng DеLight  4 / 1   4.21 GB   2011-10-27 22:47 
   Таємне вікно / Secret Window (2004) Ukr/Eng | Sub Eng Romario_O  12 / 2   1.76 GB   2009-11-28 19:08 
3a6a6axyc 
Новенький


З нами з: 26.11.16
Востаннє: 18.10.17
Повідомлень: 8

2017-02-20 20:38  
Дякую за реліз
Ваш часовий пояс: GMT + 2 Години

Нова тема   Відповісти