Лікар Плюшева / Doc McStuffins (Сезон 2) (2013) 720p Ukr/Eng

Нові коментарі

Нова тема   Відповісти
Автор Повідомлення
sergiyko.5 
Забанено
Забанено


З нами з: 25.02.16
Востаннє: 29.10.20
Повідомлень: 3648

2017-02-06 21:53  
Лікар Плюшева / Doc McStuffins (Сезон 2) (2013) 720p Ukr/Eng

Лікар Плюшева / Doc McStuffins (Сезон 2) (2013) 720p Ukr/Eng

Жанр: мультсеріал, пригоди, музичний
Країна: США, Ірландія
Кінокомпанія: Disney
Режисер: Нортон Вірген, Марія Естрада
Актори: Кіара Мухаммад, Джейден Беттс, Лара Джилл Міллер, Роббі Ріст, Лоретта Дивайн, Джесс Харнелл, Кімберлі Брукс, Кайлі Андерсон, Гарі Ентоні Уільямс, Кейтлін Кармайкл

Українською ролі озвучували:
Дана - Єлизавета Мастаєва
Хмарка - Анна Коваль
Вогник - Андрій Альохін
Краля - Олена Узлюк
Дрижик - Сергій Солопай
Данко - Віктор Григор'єв

Режисер дубляжу: Павло Скороходько
Перекладач: Тетяна Левченко
Переклад пісень: Роман Кисельов
Музичний керівник: Тетяна Піроженко


Сюжет:
Хорошим лікарем може бути навіть дитина. Головне – бажання допомогти близьким. У цьому впевнена 6-річна героїня мультсеріалу Дотті, що називає себе Лікар Плюшева, яка просто обожнює свої іграшки. Варто їй тільки піднести до них стетоскоп, і вони оживають!




Тривалість: 1 серія: 24:00 (цілком серій: 37)

Якість:
Відео: кодек: розмір кадру: 1280 х 720 бітрейт: 2450 кб/с
Аудіо #1: мова: українська переклад: професійний дубльований кодек: 2.0 бітрейт: 192 кб/с
Аудіо #2: мова: англійська переклад: оригінал кодек: 2.0 бітрейт: 128 кб/с
Джерело озвучення:
Перелік серій:

01. Doc McStuffins Goes McMobile / Chip Off the Ol' Box
02. Awesome Guy's Awesome Arm / Lamb in a Jam
03. Diagnosis Not Even Close-Is / Bronty's Twisted Tail
04. Frida Fairy Flies Again / A Tale of Two Dragons
05. Think Pink / You Foose, You Lose
06. Leilani's Luau / Karate Kangaroos
07. Doc to the Rescue / Don't Knock the Noggin
08. Disco Dress Up Daisy / The Glider Brothers
09. Kirby and the King / Bubble Monkey, Blow Your Nose!
10. Professor Pancake / You Crack Me Up
11. A Very McStuffins Christmas
12. The Doctor Will See You Now / L'il Egghead Feels the Heat
13. The Big Sleepover / No Sweetah Cheetah
14. Big Head Hallie / Peaches Pie, Take a Bath!
15. Celestial Celeste / Run Doc Run!
16. A Fairy Big Knot / Rosie the Rescuer
17. Crikey! It's Wildlife Will! / Rootin' Tootin' Southwest Sal
18. Take Your Doc To Work Day / Blazer's Bike
19. The Big Storm / Spritzy Mitzi
20. Dad's Favorite Toy / Chilly and the Dude
21. Sir Kirby and the Plucky Princess / Serpent Sam Makes a Splash
22. The Wicked King and the Mean Queen / Take a Stroll!
23. Oooey Gablooey Springs a Leak / There's a King in Your Tummy!
24. Doc's Busy Day / Wrong Side of the Law
25. Mirror, Mirror on My Penguin / Hide and Eek!
26. McStuffins School of Medicine / The Super Amazing Ultra Hoppers
27. Let the Nightingale Sing
28. Hazel Has a Sleepover / My Breakfast with Bronty
29. Training Army Al / Sproingo Boingo Takes the Leap
30. Shell Shy / Commander No
31. The Flimsy Grumpy Bat / Rockstar Ruby and the Toys
32. A Day Without Cuddles! / Collide-o-scope
33. Crash Course / Luna on the Moon-a
34. Fully in Focus / Picky Nikki
35. Getting to the Heart of Things / Toy in the Sun
36. Three Goats A' Cuddlin' / Swimmer's Belly
37. Fetchin' Findo / Twin Tweaks
Інформація про файл:
Video
ID : 1
Format : AVC
Format/Info : Advanced Video Codec
Format profile : [email protected]
Format settings, CABAC : Yes
Format settings, ReFrames : 4 frames
Codec ID : V_MPEG4/ISO/AVC
Duration : 23mn 59s
Bit rate : 2 452 Kbps
Width : 1 280 pixels
Height : 720 pixels
Display aspect ratio : 16:9
Frame rate mode : Constant
Frame rate : 23.976 fps
Color space : YUV
Chroma subsampling : 4:2:0
Bit depth : 8 bits
Scan type : Progressive
Bits/(Pixel*Frame) : 0.111
Stream size : 421 MiB (85%)
Title : S02E01.Doc McStuffins Goes McMobile-Chip Off the Ol' Box
Language : English
Default : Yes
Forced : No
Color range : Limited
Color primaries : BT.709
Transfer characteristics : BT.709
Matrix coefficients : BT.709

Audio #1
ID : 2
Format : AC-3
Format/Info : Audio Coding 3
Mode extension : CM (complete main)
Format settings, Endianness : Big
Codec ID : A_AC3
Duration : 23mn 59s
Bit rate mode : Constant
Bit rate : 192 Kbps
Channel(s) : 2 channels
Channel positions : Front: L R
Sampling rate : 48.0 KHz
Compression mode : Lossy
Stream size : 33.0 MiB (7%)
Title : DUB 2ch 192kbps | ПлюсПлюс
Language : Ukrainian
Default : Yes
Forced : Yes

Audio #2
ID : 3
Format : AC-3
Format/Info : Audio Coding 3
Mode extension : CM (complete main)
Format settings, Endianness : Big
Codec ID : A_AC3
Duration : 23mn 59s
Bit rate mode : Constant
Bit rate : 192 Kbps
Channel(s) : 2 channels
Channel positions : Front: L R
Sampling rate : 48.0 KHz
Compression mode : Lossy
Delay relative to video : 31ms
Stream size : 33.0 MiB (7%)
Title : Original
Language : English
Default : No
Forced : No
Скріншоти:


Запис/зведення: sergiyko



Бронзовий реліз (на рейтинг впливає 75% завантаженого)
 Трекер:    Зареєстрований   

Завантажити / скачати мультфільм українською



відео для новачків



 Зареєстрований:   2017-06-30 09:46
 Розмір:   17.8 GB 
 Оцінка мультсеріалу:   9.9/10 (Голосів: 22)
   
alinarose 
Новенький


З нами з: 25.12.16
Востаннє: 28.01.19
Повідомлень: 2

2017-03-04 22:37  
Дуже хочеться завантажити.... Будь ласка станьте до роздачі
sergiyko.5 
Забанено
Забанено


З нами з: 25.02.16
Востаннє: 29.10.20
Повідомлень: 3648

2017-03-04 22:51  
alinarose написано:
Дуже хочеться завантажити.... Будь ласка станьте до роздачі

Роздаю.

freemanletun 
Новенький


З нами з: 03.01.16
Востаннє: 23.03.21
Повідомлень: 2

2017-03-11 18:13  
а інші серії будуть ?
rositsky 
Новенький


З нами з: 28.05.16
Востаннє: 14.04.21
Повідомлень: 3

2017-05-02 21:29  
Підскажіть, будь-ласка, чи плануєте викладати 2 сезон?
sergiyko.5 
Забанено
Забанено


З нами з: 25.02.16
Востаннє: 29.10.20
Повідомлень: 3648

2017-05-02 21:58  
rositsky
Планую.

sergiyko.5 
Забанено
Забанено


З нами з: 25.02.16
Востаннє: 29.10.20
Повідомлень: 3648

2017-05-08 13:51  
Додав 2-9 серії другого сезону.
xxELENxx 
Новенький


З нами з: 09.05.17
Востаннє: 24.01.18
Повідомлень: 1

2017-05-30 10:17  
Доброго ранку ... станьте на роздачу будь-ласка
sergiyko.5 
Забанено
Забанено


З нами з: 25.02.16
Востаннє: 29.10.20
Повідомлень: 3648

2017-05-30 10:30  
xxELENxx написано:
... станьте на роздачу будь-ласка


Зверху релізу є статистика тих хто качає роздає, там видно три сіда, і вас видно - "UPnP NAT Bit Torrent
", налаштовуйте ваш торент-клієнт і роздача піде.

sergiyko.5 
Забанено
Забанено


З нами з: 25.02.16
Востаннє: 29.10.20
Повідомлень: 3648

2017-06-09 20:40  
Додав 25 нових серій.
sergiyko.5 
Забанено
Забанено


З нами з: 25.02.16
Востаннє: 29.10.20
Повідомлень: 3648

2017-06-30 09:47  
Додав три серії яких не вистачало. Сезон повний. Приємного перегляду!
demetrius52 
VIP


З нами з: 02.04.17
Востаннє: 03.05.20
Повідомлень: 264

2017-07-12 15:53  
sergiyko.5
чий дубляж?

sergiyko.5 
Забанено
Забанено


З нами з: 25.02.16
Востаннє: 29.10.20
Повідомлень: 3648

2017-07-12 17:21  
demetrius52
Мій

Ваш часовий пояс: GMT + 2 Години

Нова тема   Відповісти