Керрі / Carrie (2013) Remux 1080p Ukr/Eng | Sub Ukr/Eng

Нові коментарі

Нова тема   Відповісти
Автор Повідомлення
staf777 
Відео Гуртом - підтримка та поширення
Відео Гуртом - підтримка та поширення


З нами з: 16.11.16
Востаннє: 18.09.20
Повідомлень: 4018

2017-02-06 21:05  
Керрі / Carrie (2013) Remux 1080p Ukr/Eng | Sub Ukr/Eng

Оригінальний постер

Керрі / Carrie (2013) Remux 1080p Ukr/Eng | Sub Ukr/Eng
Жанр: драма, жахи
Країна: США



Кінокомпанія: Metro-Goldwyn-Mayer (MGM), Screen Gems, Misher Films
Режисер: Кімберлі Пірс
Актори: Хлоя Ґрейс Морец, Джуді Ґрір, Джуліана Мур, Енсел Ельґорт, Ґабріела Вайлд, Алекс Расселл, Портія Даблдей, Мішель Нолден, Скайлер Векслер, Конор Прайс та інші.

Сюжет:
За мотивами парапсихічного роману Стівена Кінґа «Керрі». Такі, як Керрі, часто стають мішенню для злих жартів однокласників - тиха, скромна, трохи незграбна неприваблива пуританка. Але вона зовсім не така беззахисна, як здається. З дитинства дівчина наділена даром телекінезу. Тож коли ровесники готували черговий злий жарт, вони навіть не підозрювали, що покарання буде набагато страшнішим, ніж можна уявити.


Тривалість: 01:39:41
Якість: Remux 1080p
Відео:
кодек:
розмір кадру: 1920x1080
бітрейт: 27.6 Mб/с

Аудіо # 1:
мова: українська
переклад: професійний дубльований
кодек: 5.1
бітрейт: 448 кб/с

Аудіо # 2:
мова: англійська
переклад: оригінал
кодек: -HD MA 5.1
бітрейт: 3725 кб/с

Аудіо # 3:
мова: англійська
переклад: коментарі
кодек: 2.0
бітрейт: 224 кб/с

Субтитри #1-2:
мова: українська
тип: пререндерні
формат: * pgs

Субтитри #3:
мова: англійська
тип: пререндерні
формат: * pgs
Info
General
Unique ID : 223647597853415553332772345479945028715 (0xA840F5E7E3F17987BF0236307C50846B)
Complete name : P:\HDClub\CARRIE_2013_REMUX_HDCLUB\BDMV\STREAM\ Carrie (2013) [Ukr,Eng sub.Ukr,Eng] Remux 1080p [Hurtom].
Format :
Format version : Version 4 / Version 2
File size : 22.3 GiB
Duration : 1 h 39 min
Overall bit rate mode : Variable
Overall bit rate : 32.1 Mb/s
Movie name : Carrie (2013) [Ukr,Eng sub.Ukr,Eng] Remux 1080p [Hurtom]
Encoded date : UTC 2017-02-09 08:19:41
Writing application : v9.8.0 ('Kuglblids') 64bit
Writing library : libebml v1.3.4 + v1.4.5

Video
ID : 1
Format : AVC
Format/Info : Advanced Video Codec
Format profile : [email protected]
Format settings, CABAC : Yes
Format settings, ReFrames : 4 frames
Codec ID : V_MPEG4/ISO/AVC
Duration : 1 h 39 min
Bit rate mode : Variable
Bit rate : 27.6 Mb/s
Maximum bit rate : 30.0 Mb/s
Width : 1 920 pixels
Height : 1 080 pixels
Display aspect ratio : 16:9
Frame rate mode : Constant
Frame rate : 23.976 (24000/1001) FPS
Color space : YUV
Chroma subsampling : 4:2:0
Bit depth : 8 bits
Scan type : Progressive
Bits/(Pixel*Frame) : 0.556
Stream size : 19.2 GiB (86%)
Default : Yes
Forced : No

Audio #1
ID : 2
Format : AC-3
Format/Info : Audio Coding 3
Mode extension : CM (complete main)
Format settings, Endianness : Big
Codec ID : A_AC3
Duration : 1 h 39 min
Bit rate mode : Constant
Bit rate : 448 kb/s
Channel(s) : 6 channels
Channel positions : Front: L C R, Side: L R, LFE
Sampling rate : 48.0 kHz
Frame rate : 31.250 FPS (1536 spf)
Bit depth : 16 bits
Compression mode : Lossy
Stream size : 319 MiB (1%)
Language : Ukrainian
Default : Yes
Forced : Yes

Audio #2
ID : 3
Format :
Format/Info : Digital Theater Systems
Format profile : MA / Core
Mode : 16
Format settings, Endianness : Big
Codec ID : A_DTS
Duration : 1 h 39 min
Bit rate mode : Variable / Constant
Bit rate : 3 725 kb/s / 1 509 kb/s
Channel(s) : 6 channels
Channel positions : Front: L C R, Side: L R, LFE
Sampling rate : 48.0 kHz
Frame rate : 93.750 FPS (512 spf)
Bit depth : 24 bits
Compression mode : Lossless / Lossy
Stream size : 2.59 GiB (12%)
Language : English
Default : No
Forced : No

Audio #3
ID : 4
Format : AC-3
Format/Info : Audio Coding 3
Mode extension : CM (complete main)
Format settings, Endianness : Big
Codec ID : A_AC3
Duration : 1 h 39 min
Bit rate mode : Constant
Bit rate : 224 kb/s
Channel(s) : 2 channels
Channel positions : Front: L R
Sampling rate : 48.0 kHz
Frame rate : 31.250 FPS (1536 spf)
Bit depth : 16 bits
Compression mode : Lossy
Stream size : 160 MiB (1%)
Language : English
Default : No
Forced : No

Text #1
ID : 5
Format : PGS
Muxing mode : zlib
Codec ID : S_HDMV/PGS
Codec ID/Info : Picture based subtitle format used on BDs/HD-DVDs
Duration : 1 h 17 min
Bit rate : 275 b/s
Count of elements : 18
Stream size : 157 KiB (0%)
Language : Ukrainian
Default : Yes
Forced : No

Text #2
ID : 6
Format : PGS
Muxing mode : zlib
Codec ID : S_HDMV/PGS
Codec ID/Info : Picture based subtitle format used on BDs/HD-DVDs
Duration : 1 h 33 min
Bit rate : 19.3 kb/s
Count of elements : 1850
Stream size : 12.9 MiB (0%)
Language : Ukrainian
Default : No
Forced : No

Text #3
ID : 7
Format : PGS
Muxing mode : zlib
Codec ID : S_HDMV/PGS
Codec ID/Info : Picture based subtitle format used on BDs/HD-DVDs
Duration : 1 h 37 min
Bit rate : 10.8 kb/s
Count of elements : 2692
Stream size : 7.53 MiB (0%)
Language : English
Default : No
Forced : No
Скріншоти




Джерело:
Особиста оцінка: 8 - мені сподобалося


Золотий реліз (завантажене не впливає на рейтинг)
 Трекер:    Зареєстрований   

Завантажити / скачати фільм українською



відео для новачків



 Зареєстрований:   2017-02-09 13:18
 Розмір:   22.32 GB 
 Оцінка фільму:   7.7/10 (Голосів: 10)
   
Інші релізи
   Керрі / Carrie (2013) AngryBirdsUA  3 / 0   1.45 GB   2014-02-07 18:57 
   Керрі / Carrie (2013) 720p mini Ukr/Eng | Sub Ukr/Eng NeetScrool  2 / 0   2.41 GB   2014-02-04 20:38 
   Керрі / Carrie (2013) 720p Ukr/Eng | Sub Ukr/Eng NeetScrool  0 / 2   6.89 GB   2014-02-04 20:23 
   Керрі / Carrie (2013) 1080p Ukr/Eng | Sub Ukr/Eng 11FrYkT  2 / 0   7.63 GB   2014-02-04 12:33 
   Керрі / Carrie (2013) AVC Ukr/Eng | Sub Ukr/Eng 11FrYkT  3 / 0   2.19 GB   2014-02-04 11:19 
GoDLiKeR20 
Свій


З нами з: 21.06.13
Востаннє: 18.09.20
Повідомлень: 89

2017-02-09 20:28  
Мораль фільму: краще не злити аутсайдерів)
ChazAshley 
Новенький


З нами з: 14.01.16
Востаннє: 07.09.20
Повідомлень: 3

2017-05-11 14:12  
заради бога, дозвольте дозавантажити, 10% залишилось, але вже два дні не можу добити
igor911 
Модератор відео


З нами з: 18.01.08
Востаннє: 18.09.20
Повідомлень: 14994

2017-05-11 14:14  
ChazAshley написано:
заради бога, дозвольте дозавантажити, 10% залишилось, але вже два дні не можу добити

ChazAshley написано:
Рейтинг: 0.01

ти щось не дуже даєш комусь довантажити

ChazAshley 
Новенький


З нами з: 14.01.16
Востаннє: 07.09.20
Повідомлень: 3

2017-05-11 16:40  
igor911
так в мене місця на диску нема, доводиться видаляти

ChazAshley 
Новенький


З нами з: 14.01.16
Востаннє: 07.09.20
Повідомлень: 3

2017-05-15 19:09  
це, товариші, якийсь сором...
igor911 
Модератор відео


З нами з: 18.01.08
Востаннє: 18.09.20
Повідомлень: 14994

2017-05-15 19:27  
ChazAshley написано:
це, товариші, якийсь сором...

Ти про свій рейтинг? Так, дійсно.

Ваш часовий пояс: GMT + 2 Години

Нова тема   Відповісти