Роман на удачу (Серії 16/16) / Lucky Romance / 운빨로맨스 (2016) 720p Kor | sub Ukr

Нові коментарі

Нова тема   Відповісти
Автор Повідомлення
vitexdp 
Частий відвідувач


З нами з: 09.07.14
Востаннє: 24.08.17
Повідомлень: 34

2017-02-06 17:41  
Роман на удачу (Серії 16/16) / Lucky Romance / 운빨로맨스 (2016) 720p Kor | sub Ukr

Роман на удачу (Серії 16/16) / Lucky Romance / 운빨로맨스 (2016) 720p Kor | sub Ukr


Жанр: романтичний, комедія
Країна: Південна Корея

Кінокомпанія: MBC
Режисер: Кім Кьюн Хі
Актори: Хван Чжон Ім, Рю Чжун Йоль, Лі Су Хьок...

Сюжет:
Шім Бо Ні народжена під нещасливою зорею. Нещасну просто переслідують біди і проблеми. Не встигла вона втратити батьків, як її сестра опинилася на краю могили. Щоб врятувати її, Бо Ні виснажує себе на декількох роботах. І що з того, що ти маєш світлу голову, що ти набагато працьовитіша і витриваліша за інших, якщо тобі по життю не щастить, то тут хоч плач… але Бо Ні ніколи не плаче. Вона вірить своїм духам, магічній солі… і намагається будь-що убезпечити себе від світу… тобто світ від себе, щоб не наробити біди. Але, здається, вихід знайдено: треба знайти чоловіка, народженого у рік тигра, провести з ним одну ніч і все… Твоє прокляття знято! Але хто ж знав, що тих «тигрів» так важко знайти, а той, що трапиться, просто нестерпна падлюка…


Тривалість: 01:00:00
Якість:
Відео:
кодек:
розмір кадру: 1280 x 720
бітрейт: 1 995 кб/с

Аудіо:
мова: корейська
переклад: оригінал
кодек: WAV (PCM)
бітрейт: 1 536 кб/с

Субтитри:
мова: українська
тип: вбудовані (жорсткі)
Скріншоти




Медіаінфо

General
Complete name : [bambooua.com] Роман на удачу 01 (укр. субтитри).avi
Format : AVI
Format/Info : Audio Video Interleave
File size : 1.46 GiB
Duration : 58 min 50 s
Overall bit rate : 3 543 kb/s
Writing library : VirtualDub build 23774/release

Video
ID : 0
Format : MPEG-4 Visual
Format profile : Advanced [email protected]
Format settings, BVOP : 2
Format settings, QPel : No
Format settings, GMC : No warppoints
Format settings, Matrix : Default (H.263)
Muxing mode : Packed bitstream
Codec ID :
Codec ID/Hint :
Duration : 58 min 50 s
Bit rate : 1 995 kb/s
Width : 1 280 pixels
Height : 720 pixels
Display aspect ratio : 16:9
Frame rate : 29.970 (29970/1000) FPS
Color space : YUV
Chroma subsampling : 4:2:0
Bit depth : 8 bits
Scan type : Progressive
Compression mode : Lossy
Bits/(Pixel*Frame) : 0.072
Stream size : 840 MiB (56%)
Writing library : 73

Audio
ID : 1
Format : PCM
Format settings, Endianness : Little
Format settings, Sign : Signed
Codec ID : 1
Duration : 58 min 50 s
Bit rate mode : Constant
Bit rate : 1 536 kb/s
Channel(s) : 2 channels
Sampling rate : 48.0 kHz
Bit depth : 16 bits
Stream size : 646 MiB (43%)
Alignment : Aligned on interleaves
Interleave, duration : 33 ms (1.00 video frame)
Interleave, preload duration : 500 ms
Джерело: Bamboo.ua, українські субтитри: Jastinnne
Особиста оцінка: 0 - не дивився


Золотий реліз (завантажене не впливає на рейтинг)
 Трекер:    Зареєстрований   

Завантажити / скачати серіал українською



відео для новачків



 Зареєстрований:   2017-02-06 17:41
 Розмір:   20.23 GB 
 Оцінка серіалу:   9/10 (Голосів: 2)
   
Ваш часовий пояс: GMT + 2 Години

Нова тема   Відповісти